<?xml version="1.0" standalone="no"?>
<!DOCTYPE svg PUBLIC "-//W3C//DTD SVG 1.1//EN" "http://www.w3.org/Graphics/SVG/1.1/DTD/svg11.dtd" >
<svg xmlns="http://www.w3.org/2000/svg">
<metadata>Generated by IcoMoon</metadata>
<defs>
<font id="icomoon" horiz-adv-x="1024">
<font-face units-per-em="1024" ascent="960" descent="-64" />
<missing-glyph horiz-adv-x="1024" />
<glyph unicode="&#x20;" horiz-adv-x="512" d="" />
<glyph unicode="&#xe900;" glyph-name="Arrow---Right-2" horiz-adv-x="630" d="M66.033 8.476c-16.45 16.234-17.945 41.645-4.486 59.55l4.486 5.128 399.674 394.539-399.674 394.538c-16.45 16.237-17.945 41.647-4.486 59.552l4.486 5.13c16.45 16.238 42.191 17.714 60.33 4.428l5.197-4.428 432.458-426.878c16.45-16.237 17.945-41.647 4.487-59.552l-4.487-5.13-432.458-426.876c-18.095-17.865-47.432-17.865-65.528 0z" />
<glyph unicode="&#xe902;" glyph-name="clarity_block-quote-line" horiz-adv-x="1280" d="M304.251 494.737c-45.59-0.154-90.373-12.041-130.039-34.513 55.846 144.553 148.469 272.016 268.706 369.778 6.878 5.665 12.574 12.63 16.764 20.497 4.186 7.867 6.784 16.481 7.642 25.352s-0.038 17.823-2.641 26.347c-2.603 8.524-6.857 16.451-12.523 23.331-5.662 6.879-12.629 12.575-20.497 16.763-7.865 4.188-16.479 6.785-25.35 7.643s-17.823-0.039-26.347-2.64c-8.524-2.601-16.451-6.856-23.331-12.522-246.518-200.296-356.219-477.629-356.219-649.576 0.425-60.796 18.543-120.154 52.141-170.829 33.599-50.671 81.225-90.462 137.062-114.517 36.137-17.506 75.711-26.765 115.863-27.115 35.343-1.719 70.665 3.759 103.827 16.098 33.16 12.343 63.471 31.292 89.092 55.697s46.016 53.76 59.955 86.281c13.935 32.525 21.12 67.541 21.12 102.925s-7.185 70.4-21.12 102.921c-13.939 32.525-34.334 61.879-59.955 86.285s-55.932 43.354-89.092 55.693c-33.162 12.343-68.485 17.822-103.827 16.102h-1.232zM990.835 494.699c-45.598-0.098-90.394-11.989-130.039-34.513 55.825 144.4 148.203 271.821 268.087 369.777 7.505 5.409 13.824 12.296 18.564 20.238 4.745 7.942 7.812 16.77 9.011 25.941 1.203 9.171 0.516 18.492-2.014 27.388-2.534 8.896-6.865 17.18-12.719 24.34s-13.116 13.048-21.329 17.299c-8.213 4.251-17.212 6.775-26.441 7.418s-18.492-0.609-27.217-3.68c-8.725-3.070-16.73-7.894-23.518-14.173-246.519-200.296-356.22-477.628-356.22-649.575 0.29-60.109 17.882-118.865 50.667-169.246s79.381-90.257 134.221-114.867c37.052-18.018 77.743-27.298 118.946-27.119 35.341-1.719 70.665 3.759 103.825 16.102 33.165 12.339 63.471 31.287 89.092 55.693s46.016 53.76 59.955 86.285c13.935 32.525 21.124 67.537 21.124 102.921s-7.189 70.4-21.124 102.925c-13.939 32.525-34.334 61.879-59.955 86.281-25.621 24.405-55.927 43.354-89.092 55.697-33.161 12.339-68.484 17.818-103.825 16.102v-1.233z" />
<glyph unicode="&#xe903;" horiz-adv-x="975" d="M487.619 941.714c-268.952 0-487.619-218.667-487.619-487.619s218.667-487.619 487.619-487.619c268.951 0 487.619 218.668 487.619 487.619s-218.668 487.619-487.619 487.619z" />
<glyph unicode="&#xe904;" horiz-adv-x="975" d="M705.955 601.327v0l0.137-0.138c2.292-2.288 2.292-6.28 0-8.567l-285.713-285.714c-1.224-1.224-2.786-1.814-4.284-1.814s-3.060 0.59-4.284 1.814l-142.857 142.858c-2.288 2.287-2.288 6.281 0 8.567s6.28 2.287 8.568 0l138.573-138.576 281.566 281.571c2.258 2.294 6.037 2.294 8.294 0z" />
<glyph unicode="&#xe905;" glyph-name="Heading" horiz-adv-x="1225" d="M8.852-60.377c0 67.389 0 134.777 0 202.164 0 67.389 1.203 129.964 3.61 187.724 7.22 202.164 39.711 354.992 97.472 458.482 57.761 105.895 166.063 158.843 324.908 158.843l46.931-173.285c-89.049-4.813-146.81-37.304-173.284-97.471s-39.711-141.997-39.711-245.486h238.266v-490.971h-498.192zM727.258-60.377c0 67.389 0 134.777 0 202.164 0 67.389 1.204 129.964 3.611 187.724 7.22 202.164 39.711 354.992 97.473 458.482 57.76 105.895 166.063 158.843 324.907 158.843l46.931-173.285c-89.049-4.813-146.81-37.304-173.284-97.471s-39.711-141.997-39.711-245.486h238.266v-490.971h-498.193z" />
<glyph unicode="&#xe906;" glyph-name="Play" d="M943.818 436.103c0.025-10.538-2.675-20.899-7.841-30.084-5.167-9.182-12.62-16.871-21.637-22.32l-558.856-341.876c-9.421-5.769-20.213-8.918-31.26-9.123s-21.947 2.541-31.576 7.959c-9.538 5.334-17.483 13.11-23.018 22.531s-8.462 20.148-8.477 31.074v683.675c0.016 10.927 2.942 21.653 8.477 31.074s13.48 17.198 23.018 22.531c9.629 5.417 20.529 8.165 31.576 7.96s21.839-3.354 31.26-9.124l558.856-341.877c9.017-5.449 16.471-13.138 21.637-22.32s7.866-19.546 7.841-30.081z" />
<glyph unicode="&#xe908;" glyph-name="ShoppingCart" d="M872.776 727.379c-2.884 3.451-6.488 6.226-10.564 8.131-4.071 1.904-8.516 2.891-13.013 2.89h-619.468l-18.778 103.143c-2.572 14.157-10.031 26.962-21.076 36.183s-24.977 14.273-39.365 14.275h-69.312c-8.147 0-15.961-3.236-21.722-8.998s-8.998-13.575-8.998-21.722c0-8.147 3.237-15.961 8.998-21.722s13.575-8.998 21.722-8.998h69.12l98.15-538.712c2.891-15.978 9.952-30.908 20.467-43.278-14.513-13.558-24.989-30.867-30.265-50.012s-5.146-39.379 0.375-58.454c5.521-19.079 16.218-36.254 30.904-49.623 14.686-13.365 32.788-22.405 52.298-26.116 19.51-3.707 39.666-1.942 58.234 5.108 18.567 7.045 34.818 19.1 46.954 34.82 12.136 15.716 19.681 34.492 21.799 54.239s-1.278 39.694-9.802 57.627h174.412c-6.873-14.385-10.428-30.134-10.408-46.080 0-21.262 6.308-42.050 18.121-59.732 11.817-17.682 28.606-31.465 48.255-39.6 19.644-8.139 41.263-10.269 62.12-6.119s40.018 14.389 55.054 29.426c15.036 15.036 25.276 34.193 29.426 55.050s2.019 42.476-6.119 62.124c-8.139 19.644-21.918 36.438-39.6 48.255-17.682 11.813-38.47 18.117-59.736 18.117h-371.826c-7.194 0.004-14.16 2.527-19.683 7.139s-9.252 11.014-10.538 18.092l-12.173 66.929h445.44c21.582 0.004 42.48 7.582 59.048 21.414s27.759 33.038 31.613 54.276l46.694 256.741c0.791 4.438 0.598 8.995-0.569 13.348-1.171 4.354-3.281 8.396-6.189 11.842zM388.4 170.078c0-9.114-2.703-18.022-7.766-25.6s-12.26-13.484-20.68-16.97c-8.42-3.49-17.685-4.399-26.624-2.621s-17.149 6.164-23.593 12.607c-6.445 6.447-10.833 14.655-12.611 23.597-1.778 8.937-0.865 18.203 2.622 26.624 3.488 8.417 9.394 15.614 16.972 20.677 7.578 5.067 16.487 7.766 25.6 7.766 12.221 0 23.942-4.854 32.584-13.496 8.641-8.638 13.496-20.361 13.496-32.584zM757.039 170.078c0-9.114-2.703-18.022-7.766-25.6s-12.259-13.484-20.681-16.97c-8.417-3.49-17.682-4.399-26.624-2.621-8.937 1.778-17.146 6.164-23.593 12.607-6.443 6.447-10.834 14.655-12.612 23.597-1.778 8.937-0.864 18.203 2.626 26.624 3.486 8.417 9.392 15.614 16.97 20.677 7.578 5.067 16.486 7.766 25.6 7.766 12.222 0 23.941-4.854 32.584-13.496 8.643-8.638 13.496-20.361 13.496-32.584zM772.399 456.43c-1.29-7.098-5.034-13.517-10.58-18.129-5.55-4.612-12.542-7.127-19.755-7.102h-456.499l-44.66 245.762h571.471l-39.977-220.53z" />
<glyph unicode="&#xe90a;" glyph-name="User" d="M923.665 111.974c-60.919 105.318-154.799 180.838-264.358 216.64 54.191 32.26 96.294 81.421 119.846 139.93 23.552 58.505 27.243 123.127 10.513 183.936s-52.958 114.447-103.121 152.673c-50.167 38.227-111.492 58.929-174.562 58.929-63.066 0-124.393-20.703-174.557-58.929s-86.393-91.863-103.124-152.673c-16.73-60.81-13.036-125.432 10.514-183.936 23.55-58.509 65.655-107.669 119.849-139.93-109.56-35.759-203.44-111.279-264.36-216.64-2.234-3.644-3.716-7.697-4.358-11.921s-0.432-8.533 0.619-12.676c1.051-4.143 2.921-8.034 5.499-11.439 2.578-3.409 5.813-6.263 9.513-8.401s7.791-3.516 12.032-4.045c4.24-0.529 8.544-0.205 12.657 0.951 4.113 1.161 7.952 3.132 11.29 5.798s6.109 5.978 8.148 9.732c75.36 130.24 208.56 208 356.278 208 147.721 0 280.922-77.76 356.284-208 2.035-3.755 4.809-7.066 8.145-9.732 3.341-2.667 7.181-4.638 11.294-5.798 4.113-1.156 8.414-1.481 12.655-0.951s8.333 1.907 12.032 4.045c3.699 2.138 6.933 4.992 9.515 8.401 2.577 3.405 4.446 7.296 5.495 11.439 1.054 4.143 1.263 8.452 0.619 12.676-0.64 4.224-2.121 8.277-4.356 11.921zM287.985 575.974c0 44.303 13.137 87.611 37.751 124.448s59.597 65.547 100.528 82.501c40.932 16.954 85.971 21.39 129.423 12.747s83.362-29.977 114.692-61.304c31.326-31.327 52.659-71.24 61.303-114.691 8.64-43.452 4.207-88.492-12.749-129.422-16.951-40.93-45.666-75.913-82.5-100.527-36.838-24.614-80.145-37.751-124.45-37.751-59.388 0.064-116.326 23.684-158.32 65.677-41.995 41.997-65.615 98.935-65.679 158.323z" />
<glyph unicode="&#xe90b;" glyph-name="Vector-1" horiz-adv-x="838" d="M418.909 727.273c-34.522 0-68.268-10.237-96.972-29.416s-51.076-46.439-64.287-78.334c-13.211-31.894-16.667-66.989-9.933-100.848s23.359-64.959 47.77-89.368c24.411-24.413 55.512-41.034 89.37-47.77s68.954-3.281 100.85 9.933c31.893 13.21 59.155 35.579 78.331 64.284 19.181 28.705 29.417 62.451 29.417 96.973 0 46.292-18.39 90.689-51.121 123.422-32.735 32.734-77.132 51.123-123.425 51.123zM418.909 448c-20.713 0-40.961 6.144-58.183 17.65s-30.646 27.862-38.572 47c-7.927 19.137-10 40.194-5.96 60.509s14.015 38.976 28.662 53.622c14.646 14.646 33.307 24.621 53.622 28.662s41.372 1.967 60.509-5.96c19.138-7.927 35.494-21.35 47-38.572s17.65-37.47 17.65-58.183c0-27.776-11.036-54.413-30.673-74.054-19.642-19.638-46.278-30.673-74.054-30.673zM418.909 936.727c-101.807-0.115-199.412-40.61-271.401-112.599s-112.483-169.593-112.599-271.401c0-137.016 63.316-282.238 183.273-419.998 53.901-62.25 114.565-118.305 180.873-167.131 5.869-4.11 12.862-6.316 20.029-6.316s14.16 2.206 20.029 6.316c66.185 48.845 126.731 104.899 180.524 167.131 119.78 137.761 183.273 282.982 183.273 419.998-0.116 101.808-40.611 199.412-112.598 271.401s-169.593 112.483-271.402 112.599zM418.909 37.818c-72.131 56.73-314.182 265.090-314.182 514.909 0 83.326 33.101 163.24 92.022 222.16s138.834 92.022 222.16 92.022c83.326 0 163.24-33.101 222.161-92.022 58.917-58.92 92.020-138.834 92.020-222.16 0-249.73-242.050-458.179-314.182-514.909z" />
<glyph unicode="&#xe90c;" glyph-name="Vector-2" horiz-adv-x="922" d="M844.8 857.6h-115.2v38.4c0 10.184-4.045 19.952-11.249 27.153-7.199 7.201-16.968 11.247-27.151 11.247s-19.953-4.046-27.151-11.247c-7.204-7.201-11.249-16.969-11.249-27.153v-38.4h-384v38.4c0 10.184-4.046 19.952-11.247 27.153s-16.969 11.247-27.153 11.247c-10.184 0-19.952-4.046-27.153-11.247s-11.247-16.969-11.247-27.153v-38.4h-115.2c-20.368 0-39.903-8.092-54.306-22.494s-22.494-33.937-22.494-54.306v-768c0-20.367 8.091-39.905 22.494-54.308s33.937-22.492 54.306-22.492h768c20.367 0 39.905 8.090 54.308 22.492s22.492 33.94 22.492 54.308v768c0 20.368-8.090 39.903-22.492 54.306s-33.94 22.494-54.308 22.494zM844.8 627.2h-768v153.6h115.2v-38.4c0-10.184 4.046-19.952 11.247-27.153s16.969-11.247 27.153-11.247c10.184 0 19.952 4.046 27.153 11.247s11.247 16.969 11.247 27.153v38.4h384v-38.4c0-10.184 4.045-19.952 11.249-27.153 7.199-7.201 16.968-11.247 27.151-11.247s19.953 4.046 27.151 11.247c7.204 7.201 11.249 16.969 11.249 27.153v38.4h115.2v-153.6z" />
<glyph unicode="&#xe90d;" glyph-name="Vector-3" horiz-adv-x="838" d="M418.909 785.455c-82.852 0-163.844-24.569-232.733-70.599s-122.582-111.455-154.288-188.001c-31.706-76.546-40.002-160.775-23.838-242.034s56.061-155.904 114.646-214.491c58.586-58.582 133.228-98.481 214.488-114.646 81.26-16.161 165.488-7.866 242.037 23.841 76.544 31.707 141.968 85.397 187.997 154.289 46.033 68.887 70.6 149.881 70.6 232.732-0.126 111.062-44.302 217.54-122.833 296.073-78.536 78.533-185.014 122.709-296.076 122.836zM618.152 516.392l-174.544-174.544c-3.243-3.244-7.094-5.818-11.331-7.573s-8.78-2.658-13.367-2.658c-4.587 0-9.128 0.903-13.366 2.658s-8.088 4.329-11.331 7.573c-3.243 3.244-5.816 7.094-7.572 11.329-1.755 4.24-2.659 8.783-2.659 13.368s0.903 9.128 2.659 13.368c1.755 4.236 4.328 8.085 7.572 11.329l174.546 174.546c3.244 3.244 7.094 5.816 11.329 7.572 4.24 1.756 8.783 2.659 13.368 2.659 4.589 0 9.128-0.903 13.368-2.659 4.236-1.755 8.085-4.328 11.329-7.572s5.818-7.094 7.573-11.331c1.755-4.237 2.658-8.779 2.658-13.366s-0.903-9.129-2.658-13.366c-1.755-4.238-4.329-8.088-7.573-11.332zM279.273 890.182c0 9.258 3.678 18.138 10.225 24.684s15.426 10.225 24.684 10.225h209.455c9.258 0 18.139-3.678 24.683-10.225 6.549-6.547 10.226-15.426 10.226-24.684s-3.677-18.138-10.226-24.684c-6.544-6.547-15.425-10.225-24.683-10.225h-209.455c-9.258 0-18.137 3.678-24.684 10.225s-10.225 15.426-10.225 24.684z" />
<glyph unicode="&#xe90e;" glyph-name="Vector" horiz-adv-x="1280" d="M1216 928h-1152c-12.73 0-24.939-5.057-33.941-14.059s-14.059-21.211-14.059-33.941v-816c0-25.459 10.114-49.882 28.118-67.885s42.422-28.115 67.882-28.115h1056c25.459 0 49.882 10.112 67.885 28.115s28.115 42.426 28.115 67.885v816c0 12.73-5.056 24.939-14.061 33.941-8.998 9.002-21.21 14.059-33.939 14.059zM1092.582 832l-452.582-414.9-452.58 414.9h905.162zM1168 64h-1056v706.86l495.54-454.259c8.856-8.128 20.439-12.64 32.46-12.64 12.019 0 23.603 4.512 32.461 12.64l495.539 454.259v-706.86z" />
<glyph unicode="&#xe90f;" glyph-name="delivery-truck-1" d="M793.788 575.349h-57.304l17.266 199.412c0.031 0.361 0.037 0.717 0.037 1.073 0 0.030 0.006 0.059 0.006 0.089 0 0.005 0 0.009 0 0.014 0 5.427-3.257 10.211-8.041 12.291-0.040 0.018-0.080 0.039-0.119 0.057-0.296 0.125-0.606 0.232-0.913 0.336-0.117 0.038-0.228 0.084-0.341 0.12-0.253 0.077-0.512 0.138-0.771 0.2-0.182 0.043-0.356 0.095-0.538 0.131-0.228 0.045-0.461 0.073-0.694 0.107-0.216 0.032-0.43 0.070-0.649 0.090-0.037 0.003-0.071 0.011-0.108 0.014-0.233 0.021-0.464 0.018-0.697 0.027-0.156 0.005-0.31 0.023-0.466 0.023h-0.168c-0.014 0-0.028 0-0.040 0h-272.666c-7.361 0-13.335-6.009-13.335-13.412 0-7.386 5.973-13.412 13.335-13.412h258.338l-26.536-306.468c-0.003-0.023-0.003-0.048-0.006-0.071l-6.696-77.326h-463.313l7.749 80.469h88.218c7.364 0 13.332 6.005 13.332 13.412s-5.968 13.412-13.332 13.412h-85.633l16.363 169.879h140.404c7.364 0 13.332 6.005 13.332 13.414 0 7.406-5.968 13.411-13.332 13.411h-137.819l7.694 79.869h147.903c7.342 0 13.332 6.027 13.332 13.412 0 7.404-5.99 13.412-13.332 13.412h-160.004c-0.007 0-0.013-0.002-0.020-0.002-6.263 0.002-11.696-4.433-13.010-10.581-0.009-0.045-0.025-0.088-0.034-0.133-0.068-0.334-0.112-0.676-0.156-1.019-0.013-0.109-0.036-0.213-0.046-0.322-0.002-0.021-0.007-0.041-0.009-0.063l-9.109-94.574h-161.637c-7.365 0-13.334-6.005-13.334-13.411 0-7.41 5.968-13.414 13.334-13.414h159.052l-16.363-169.879h-47.572c-7.365 0-13.334-6.005-13.334-13.412s5.968-13.412 13.334-13.412h44.989l-8.91-92.493c-0.002-0.014-0.002-0.028-0.004-0.040l-13.776-143.027c-0.002-0.017-0.003-0.034-0.005-0.048l-0.005-0.051c-0.018-0.185-0.016-0.37-0.027-0.555-0.013-0.247-0.037-0.489-0.037-0.74 0-0.009 0.002-0.020 0.002-0.034 0-0.344 0.025-0.683 0.050-1.024 0.011-0.108 0.007-0.219 0.020-0.327 0.036-0.347 0.094-0.688 0.156-1.027 0.018-0.102 0.026-0.202 0.046-0.302 0.051-0.259 0.125-0.506 0.192-0.759 0.046-0.176 0.084-0.356 0.137-0.529 0.016-0.048 0.038-0.097 0.052-0.145 0.645-1.997 1.74-3.789 3.17-5.251 0.026-0.028 0.048-0.057 0.075-0.082 0.142-0.142 0.297-0.273 0.446-0.407 0.919-0.848 1.957-1.567 3.093-2.13 0.236-0.119 0.469-0.242 0.711-0.344 0.073-0.031 0.151-0.054 0.226-0.082 0.334-0.134 0.67-0.262 1.017-0.373 0.032-0.009 0.062-0.014 0.094-0.023 0.395-0.119 0.793-0.222 1.2-0.307 0.053-0.011 0.108-0.014 0.16-0.026 0.387-0.071 0.777-0.134 1.173-0.174 0.009 0 0.016-0.003 0.025-0.003 0.437-0.046 0.871-0.065 1.301-0.065 0.005 0 0.013 0.003 0.020 0.003h59.358c6.555-49.988 49.161-88.707 100.619-88.707 51.456 0 94.060 38.719 100.614 88.707h213.871c6.556-49.988 49.161-88.707 100.617-88.707s94.063 38.719 100.619 88.707h59.372c0.009 0 0.020-0.003 0.028-0.003 0.444 0 0.882 0.026 1.317 0.068 0.077 0.009 0.151 0.026 0.23 0.034 0.347 0.040 0.691 0.088 1.030 0.156 0.145 0.028 0.284 0.068 0.43 0.102 0.262 0.060 0.523 0.125 0.779 0.202 0.176 0.051 0.344 0.114 0.515 0.171 0.219 0.077 0.438 0.154 0.651 0.242 0.185 0.074 0.361 0.154 0.54 0.236 0.196 0.091 0.393 0.182 0.583 0.282 0.182 0.094 0.356 0.188 0.529 0.29 0.182 0.105 0.364 0.216 0.543 0.333 0.168 0.105 0.336 0.216 0.495 0.33 0.182 0.128 0.353 0.262 0.529 0.398 0.148 0.114 0.293 0.23 0.435 0.35 0.185 0.156 0.356 0.319 0.532 0.486 0.119 0.117 0.247 0.23 0.364 0.353 0.185 0.188 0.361 0.39 0.538 0.592 0.094 0.108 0.191 0.213 0.282 0.324 0.196 0.245 0.373 0.495 0.552 0.745 0.060 0.088 0.128 0.171 0.185 0.259 0.219 0.327 0.424 0.666 0.612 1.013 0.014 0.020 0.028 0.040 0.037 0.063 0.202 0.373 0.387 0.754 0.552 1.146 0.046 0.114 0.080 0.23 0.125 0.341 0.108 0.279 0.216 0.555 0.307 0.842 0.057 0.188 0.1 0.378 0.151 0.566 0.060 0.225 0.122 0.447 0.171 0.674 0.046 0.202 0.074 0.41 0.108 0.614 0.028 0.179 0.068 0.358 0.091 0.54 0.566 4.557 11.008 88.821 15.67 143.306 0.006 0.051 0.009 0.105 0.011 0.156 1.343 15.707 2.204 28.934 2.204 37.032 0 96.139-77.759 174.356-173.338 174.356zM734.16 548.523h54.548l-6.966-80.466h-54.551l6.969 80.466zM360.909 146.867c-41.276 0-74.854 33.778-74.854 75.295s33.582 75.295 74.854 75.295c41.273 0 74.854-33.778 74.854-75.295s-33.582-75.295-74.854-75.295zM776.007 146.867c-41.273 0-74.852 33.778-74.852 75.295s33.579 75.295 74.852 75.295c41.276 0 74.854-33.778 74.854-75.295s-33.579-75.295-74.854-75.295zM924.217 235.58h-47.585c-6.554 49.991-49.161 88.71-100.622 88.71-51.456 0-94.063-38.719-100.617-88.71h-213.868c-6.554 49.991-49.158 88.71-100.617 88.71s-94.067-38.719-100.621-88.71h-44.701l11.199 116.247 478.116-0.009c0.006 0 0.011 0 0.020 0 0.447 0 0.887 0.026 1.326 0.071 0.082 0.006 0.162 0.026 0.245 0.034 0.347 0.043 0.694 0.094 1.035 0.159 0.148 0.031 0.293 0.074 0.438 0.108 0.267 0.065 0.532 0.128 0.794 0.205 0.176 0.054 0.344 0.119 0.518 0.179 0.225 0.080 0.449 0.156 0.666 0.245 0.185 0.077 0.367 0.165 0.546 0.25 0.199 0.091 0.395 0.182 0.586 0.282 0.182 0.097 0.358 0.202 0.538 0.304 0.185 0.108 0.364 0.216 0.543 0.33 0.174 0.114 0.336 0.23 0.501 0.35 0.176 0.125 0.347 0.253 0.518 0.387 0.154 0.125 0.304 0.25 0.452 0.381 0.171 0.148 0.336 0.299 0.495 0.452 0.137 0.131 0.27 0.265 0.401 0.404 0.162 0.168 0.316 0.341 0.469 0.518 0.119 0.139 0.236 0.279 0.35 0.421 0.148 0.188 0.287 0.381 0.427 0.577 0.105 0.145 0.205 0.293 0.304 0.444 0.131 0.202 0.256 0.41 0.375 0.62 0.091 0.156 0.182 0.316 0.265 0.475 0.111 0.21 0.208 0.427 0.31 0.643 0.077 0.174 0.156 0.344 0.228 0.523 0.088 0.21 0.159 0.427 0.236 0.643 0.065 0.191 0.137 0.381 0.193 0.58 0.060 0.205 0.108 0.418 0.162 0.629 0.051 0.213 0.108 0.424 0.148 0.643 0.043 0.21 0.065 0.424 0.1 0.64 0.031 0.222 0.068 0.438 0.088 0.663 0.006 0.034 0.011 0.063 0.014 0.097l6.682 77.164h68.912c40.852 0 59.278-21.291 78.783-43.836 16.094-18.6 34.062-39.353 64.606-44.416-3.88-41.256-10.149-94.217-12.956-117.407zM939.452 379.867c-19.814 4.062-32.006 18.074-46.771 35.14-18.472 21.345-41.020 47.391-84.244 52.244l6.898 79.664c70.693-10.516 125.124-71.942 125.124-145.929 0-5.026-0.375-12.331-1.007-21.12zM360.889 271.334c-26.957 0-48.887-22.062-48.887-49.18 0-27.116 21.931-49.178 48.887-49.178s48.89 22.062 48.89 49.178c0 27.116-21.934 49.18-48.89 49.18zM360.889 199.802c-12.254 0-22.221 10.027-22.221 22.352 0 12.328 9.967 22.354 22.221 22.354 12.257 0 22.224-10.027 22.224-22.354 0-12.325-9.97-22.352-22.224-22.352zM776.001 271.334c-26.957 0-48.89-22.062-48.89-49.18 0-27.116 21.934-49.178 48.89-49.178s48.89 22.062 48.89 49.178c0 27.116-21.934 49.18-48.89 49.18zM776.001 199.802c-12.254 0-22.224 10.027-22.224 22.352 0 12.328 9.97 22.354 22.224 22.354s22.221-10.027 22.221-22.354c0-12.325-9.967-22.352-22.221-22.352zM183.13 575.36h-65.185c-7.365 0-13.334-6.005-13.334-13.412s5.968-13.412 13.334-13.412h65.185c7.365 0 13.334 6.005 13.334 13.412s-5.968 13.412-13.334 13.412z" />
<glyph unicode="&#xe910;" glyph-name="Icon-1" d="M627.779 543.124l-153.856-145.321-73.838 75.965c-8.187 8.428-21.665 8.62-30.085 0.433-8.428-8.195-8.62-21.665-0.433-30.093l88.561-90.911c8.228-8.279 21.522-8.561 30.093-0.635l169.226 159.619c4.109 3.876 6.51 9.226 6.669 14.871 0.159 5.642-1.933 11.121-5.819 15.222-8.236 8.561-21.814 8.934-30.518 0.85zM513.667 766.775c-175.839 0-318.817-142.977-318.817-318.816 0-175.846 142.978-318.825 318.817-318.825 175.846 0 318.825 142.979 318.825 318.825 0 175.839-142.979 318.816-318.825 318.816zM513.667 171.814c-152.364 0-276.136 123.988-276.136 276.145s123.773 276.136 276.136 276.136c152.515 0 276.145-123.629 276.145-276.136s-123.63-276.145-276.145-276.145zM952.392 565.317l7.043 126.546c0.492 8.497-4.127 16.473-11.738 20.274l-112.676 56.976-56.975 112.677c-3.876 7.544-11.804 12.137-20.273 11.737l-126.766-6.835-105.633 69.789c-7.119 4.693-16.346 4.693-23.473 0l-105.633-69.789-126.541 7.044c-8.502 0.5-16.471-4.118-20.272-11.737l-56.985-112.677-112.669-56.976c-7.552-3.868-12.137-11.796-11.737-20.273l7.035-126.548-69.78-105.633c-4.693-7.119-4.693-16.346 0-23.473l69.572-105.843-7.044-126.546c-0.492-8.497 4.118-16.474 11.737-20.275l112.677-56.975 56.976-112.676c3.868-7.552 11.795-12.137 20.274-11.738l126.546 7.043 105.633-69.778c7.078-4.844 16.397-4.844 23.475 0l105.633 69.778 126.548-7.043c8.494-0.492 16.463 4.127 20.273 11.738l56.975 112.676 112.676 56.975c7.544 3.878 12.137 11.796 11.738 20.275l-7.043 126.546 69.778 105.633c4.695 7.119 4.695 16.356 0 23.475l-69.353 105.633zM912.696 348.073c-2.601-3.817-3.812-8.41-3.41-13.020l6.61-119.713-106.483-53.775c-4.060-2.033-7.352-5.335-9.388-9.393l-53.783-106.483-119.711 6.61c-4.585 0.166-9.111-1.019-13.023-3.41l-99.873-65.946-99.863 65.946c-3.469 2.342-7.552 3.61-11.738 3.625h-1.068l-119.721-6.618-53.774 106.491c-2.034 4.060-5.327 7.352-9.395 9.388l-106.7 53.565 6.619 119.713c0.167 4.585-1.025 9.111-3.418 13.020l-65.937 99.873 65.937 99.873c2.609 3.809 3.818 8.41 3.418 13.012l-6.619 119.721 106.492 53.774c4.060 2.034 7.352 5.327 9.386 9.386l53.776 106.492 119.721-6.619c4.575-0.158 9.101 1.025 13.020 3.418l99.863 65.937 99.873-65.937c3.82-2.609 8.42-3.818 13.023-3.418l119.711 6.619 53.783-106.492c2.035-4.059 5.327-7.352 9.388-9.386l106.483-53.774-6.61-119.721c-0.166-4.577 1.024-9.103 3.41-13.012l65.946-99.873-65.946-99.873z" />
<glyph unicode="&#xe911;" glyph-name="Icon-2" horiz-adv-x="1050" d="M193.637 332.974c-0.828 0 0.844-0.105 0 0v0zM997.919 55.903c-69.363 0-137.759 7.703-204.122 22.495 8.909 24.788 13.693 51.231 13.962 78.42 0.614 62.093-22.451 120.044-64.942 163.169-28.193 28.616-63.416 49.449-101.857 60.242-0.335 0.092-0.666 0.177-1.001 0.253-97.055 27.154-184.786 74.701-260.756 141.33-8.307 7.283-20.943 6.456-28.227-1.848s-6.456-20.943 1.848-28.227c27.686-24.279 56.845-46.167 87.37-65.605 18.081-34.944 27.003-74.081 25.812-113.628-0.33-11.041 8.351-20.26 19.392-20.593 0.205-0.005 0.41-0.008 0.612-0.008 10.77 0 19.656 8.563 19.983 19.402 0.847 28.17-2.706 56.169-10.363 83.003 32.98-16.986 67.338-31.355 102.966-43.044 20.562-33.347 32.392-71.329 34.268-110.308 0.515-10.706 9.357-19.039 19.96-19.039 0.325 0 0.653 0.008 0.98 0.023 11.031 0.532 19.546 9.907 19.013 20.941-1.508 31.383-8.543 62.203-20.575 91.092 23.127-9.728 44.291-24.010 62.075-42.061 53.834-54.638 67.205-135.286 40.499-203.955-211.988 56.855-400.443 186.998-528.875 371.405-6.314 9.065-18.778 11.295-27.844 4.984-9.065-6.313-11.295-18.78-4.983-27.845 88.527-127.112 207.408-232.794 343.789-305.62 63.158-33.723 130.051-60.296 199.114-79.378-6.794-10.319-14.643-20.14-23.588-29.271-41.836-39.951-104.62-55.88-160.054-40.579-65.155 17.981-127.127 46.139-183.601 83.085 18.463 1.843 36.762 5.576 54.779 11.284 10.532 3.336 16.364 14.577 13.028 25.108-3.336 10.529-14.569 16.358-25.106 13.028-31.931-10.115-64.883-13.11-98.028-8.95-17.27 14.065-33.871 29.023-49.695 44.846-58.475 58.473-103.97 126.321-135.941 199.311 20.614-8.044 43.437-13.599 65.801-16.399 9.937 0 19.81 7.322 21.076 17.439 1.374 10.962-6.398 20.961-17.361 22.333-32.424 4.060-62.899 14.682-90.711 31.575-50.952 151.962-46.106 320.685 19.512 471.573 19.216-88.235 55.232-172.711 105.712-247.223 6.196-9.142 18.629-11.535 27.778-5.34 9.144 6.198 11.538 18.632 5.34 27.779-58.609 86.507-96.553 187.267-109.726 291.377-1.086 8.591-7.579 15.507-16.085 17.133-8.503 1.632-17.091-2.402-21.274-9.987-36.023-65.315-61.151-135.769-74.69-209.398-13.341-72.554-15.121-146.439-5.292-219.596 20.44-152.128 88.761-290.056 197.575-398.874 85.070-85.069 190.974-146.849 306.267-178.673 17.359-4.79 35.292-7.114 53.243-7.114 53.038 0 106.199 20.293 144.901 57.16 0.225 0.207 0.456 0.389 0.676 0.607 0.195 0.189 0.356 0.392 0.54 0.586 13.896 14.203 25.772 29.955 35.489 46.874 72.343-16.717 146.696-25.306 221.332-25.306 11.049 0 20.004 8.955 20.004 20.004 0 11.046-8.957 20.004-20.004 20.004zM303.652 548.846c5.261 0 10.422 2.14 14.141 5.862 3.72 3.72 5.86 8.881 5.86 14.139 0 5.261-2.14 10.422-5.86 14.141-3.72 3.722-8.881 5.862-14.141 5.862s-10.422-2.14-14.141-5.862c-3.72-3.72-5.86-8.881-5.86-14.141 0-5.279 2.14-10.419 5.86-14.139 3.72-3.722 8.881-5.862 14.141-5.862z" />
<glyph unicode="&#xe912;" glyph-name="Icon-3" d="M943.816 652.324c-4.567 8.953-10.906 16.884-18.637 23.309-7.726 6.425-16.681 11.21-26.317 14.065s-19.753 3.722-29.737 2.545-19.62-4.374-28.329-9.395l-21.012-12.121c-2.816 10.811-8.146 20.803-15.56 29.163-10.025 11.241-23.265 19.132-37.924 22.606l6.323 6.314c29.112 27.877 31.299 73.676 4.972 104.208-6.728 7.503-14.915 13.556-24.059 17.786-9.149 4.231-19.062 6.552-29.138 6.82-10.071 0.268-20.096-1.521-29.455-5.259s-17.859-9.346-24.975-16.48l-35.287-35.371c-7.916 33.382-37.709 56.971-72.023 57.005h-0.102c-9.708 0.020-19.318-1.885-28.283-5.604s-17.101-9.179-23.943-16.063l-134.782-134.755c-2.48 21.836-12.685 42.067-28.772 57.040-21.849 19.703-55.31 18.764-76.028-2.12l-127.4-127.564c-116.501-113.106-123.417-297.849-15.703-419.352 21.786-23.849 47.27-44.032 75.475-59.776 6.065-6.477 12.412-12.682 19.022-18.601 96.575-85.919 237.371-100.209 349.236-35.451l293.448 169.385c35.267 19.436 49.208 63.027 31.764 99.313-6.815 13.507-17.618 24.596-30.945 31.764l37.524 21.647c35.384 19.318 49.485 62.945 32.092 99.315-6.769 13.437-17.505 24.468-30.756 31.6l7.644 4.411c35.354 19.514 49.254 63.27 31.667 99.616zM153.718 232.868c-95.057 107.576-88.675 270.89 14.483 370.723l127.475 127.46c3.44 3.668 8.168 5.858 13.191 6.109s9.946-1.458 13.733-4.766c5.641-5.273 10.164-11.626 13.3-18.682s4.824-14.67 4.961-22.39c0.136-7.72-1.28-15.389-4.166-22.551s-7.18-13.671-12.631-19.141h-0.089l-119.8-119.8c-1.638-1.639-2.938-3.586-3.824-5.727s-1.342-4.437-1.341-6.755c0.001-2.317 0.458-4.612 1.346-6.753s2.188-4.086 3.828-5.724c6.892-6.892 18.067-6.883 24.959 0.009l305.9 305.919c3.584 3.603 7.844 6.46 12.534 8.405 4.695 1.945 9.723 2.94 14.802 2.927 7.695 0.016 15.217-2.253 21.617-6.52s11.387-10.339 14.331-17.445c2.944-7.107 3.707-14.927 2.196-22.47s-5.228-14.466-10.675-19.892l-199.321-199.439c-1.668-1.631-2.997-3.578-3.908-5.726s-1.387-4.456-1.4-6.79c-0.013-2.334 0.437-4.647 1.324-6.805s2.193-4.12 3.844-5.77c1.65-1.65 3.611-2.957 5.77-3.844s4.471-1.337 6.805-1.324c2.334 0.013 4.641 0.489 6.79 1.4s4.095 2.239 5.726 3.908l279.525 279.506c3.732 3.75 8.192 6.697 13.102 8.66 4.915 1.964 10.179 2.901 15.462 2.756 5.289-0.141 10.491-1.362 15.288-3.589s9.088-5.411 12.611-9.358c13.481-16.664 11.868-40.898-3.707-55.628l-50.888-50.891v-0.103l-226.491-226.273c-2.253-2.176-3.886-4.913-4.731-7.928s-0.873-6.202-0.080-9.233c0.793-3.030 2.378-5.794 4.593-8.009s4.979-3.803 8.008-4.597c6.176-1.608 12.732 0.225 17.159 4.817l226.318 226.311c3.63 3.856 8.059 6.871 12.979 8.834s10.209 2.826 15.493 2.529c5.284-0.121 10.486-1.328 15.283-3.547s9.083-5.402 12.595-9.35c3.773-4.389 6.487-9.586 7.936-15.19s1.592-11.466 0.415-17.133c-0.323-1.79-0.768-3.557-1.326-5.289-0.666-2.075-1.464-4.103-2.396-6.074-0.609-1.208-1.285-2.385-2.017-3.524-0.486-0.827-0.947-1.663-1.5-2.455-1.434-2.054-3.036-3.984-4.792-5.771l-75.305-75.581-148.731-148.689c-2.253-2.171-3.886-4.905-4.736-7.921-0.845-3.016-0.876-6.2-0.082-9.231 0.794-3.026 2.381-5.791 4.598-8.003 2.212-2.217 4.977-3.799 8.008-4.593 3.026-0.794 6.216-0.768 9.231 0.077s5.75 2.473 7.931 4.726l148.408 148.435c0 0 0.215 0.112 0.302 0.198 12.396 13.449 32.788 15.747 47.867 5.392 0.855-0.525 1.766-0.913 2.56-1.515 0.794-0.595 1.679-1.55 2.54-2.309 1.183-0.966 2.299-1.989 3.369-3.065 0.077-0.121 0.164-0.234 0.251-0.338 3.098-3.794 5.489-8.116 7.055-12.759 0.988-3.275 1.526-6.66 1.608-10.072v-1.963c-0.113-6.944-1.864-13.764-5.115-19.902-0.389-0.753-0.804-1.494-1.239-2.221-1.649-2.78-3.61-5.362-5.842-7.695-0.189-0.205-0.328-0.456-0.543-0.67l-239.601-239.592c-5.176-5.181-10.568-10.143-16.164-14.863-75.096-63.544-179.229-80.241-270.427-43.351-6.464 2.632-12.825 5.509-19.066 8.632-29.239 14.664-55.51 34.621-77.478 58.86zM847.109 295.214l-293.412-169.37c-35.999-20.859-76.41-32.916-117.95-35.2-41.54-2.289-83.032 5.268-121.099 22.052 21.963-2.647 44.156-2.77 66.146-0.374 1.758 0.174 3.403 0.543 5.134 0.742 8.822 1.075 17.43 2.458 26.053 4.291 3.059 0.63 6.039 1.5 9.071 2.243 7.256 1.756 14.43 3.738 21.547 6.062 3.385 1.096 6.703 2.324 10.053 3.533 6.687 2.447 13.268 5.115 19.783 8.049 3.38 1.5 6.732 3.072 10.053 4.7 6.391 3.164 12.637 6.615 18.824 10.255 3.211 1.777 6.366 3.656 9.459 5.632 6.365 4.060 12.509 8.484 18.601 13.066 2.662 1.987 5.391 3.82 8.008 5.893 7.695 6.2 15.078 12.774 22.129 19.697 0.788 0.758 1.654 1.377 2.427 2.15l57.994 58.010h0.2c3.098 0.005 6.139 0.819 8.822 2.365l182.277 105.293c4.582 2.591 9.646 4.224 14.879 4.803s10.532 0.087 15.57-1.439c5.038-1.531 9.713-4.065 13.747-7.455 4.029-3.384 7.332-7.557 9.702-12.257 8.699-19.584 0.835-42.547-18.017-52.741zM885.576 448.009l-92.273-53.282c0 0-0.164-0.174-0.266-0.225l-83.338-48.174 91.924 91.93c3.139 3.195 5.99 6.651 8.53 10.339 0.824 1.164 1.551 2.327 2.309 3.524 1.505 2.401 2.883 4.879 4.127 7.426 0.794 1.61 1.644 3.18 2.309 4.826 2.207 5.58 3.799 11.389 4.746 17.324 0.287 1.764 0.568 3.403 0.722 5.117 0.236 2.344 0.338 4.671 0.338 7.057 0 1.764-0.123 3.522-0.241 5.288 0 1.008 0 1.998-0.128 2.982l25.334 14.644c4.572 2.638 9.631 4.318 14.868 4.939 5.243 0.621 10.552 0.169 15.611-1.328 5.059-1.493 9.764-4 13.824-7.368 4.055-3.368 7.388-7.526 9.789-12.223 8.658-19.642 0.717-42.638-18.186-52.794zM894.397 583.335l-82.816-47.847c-1.546 2.397-3.231 4.701-5.048 6.901-2.314 2.508-4.792 4.865-7.409 7.055-0.282 0.232-0.517 0.525-0.799 0.759-1.485 1.213-3.103 2.188-4.669 3.282-1.577 1.094-2.898 2.205-4.449 3.145-6.38 3.785-13.297 6.579-20.521 8.288l30.776 30.755c2.959 3.089 5.673 6.405 8.115 9.916 0.947 1.319 1.756 2.647 2.678 4.005 1.285 2.042 2.412 4.146 3.533 6.281 2.002 3.905 3.671 7.971 4.987 12.156 0.179 0.525 0.404 1.026 0.568 1.55l39.168 22.623c4.562 2.632 9.615 4.306 14.848 4.923s10.537 0.161 15.585-1.338c5.053-1.499 9.743-4.011 13.793-7.382s7.373-7.532 9.759-12.227c8.643-19.624 0.799-42.6-18.043-52.843l-0.056-0.002z" />
<glyph unicode="&#xe913;" glyph-name="Icon" d="M277.317 149.332h-85.334c-11.776 0-21.333 9.559-21.333 21.335s9.557 21.332 21.333 21.332h85.334c11.776 0 21.332-9.556 21.332-21.332s-9.556-21.335-21.332-21.335zM970.639 149.325h-53.332c-11.776 0-21.332 9.556-21.332 21.332s9.556 21.335 21.332 21.335h35.628l28.756 153.257c-0.384 78.423-67.372 145.408-149.716 145.408h-140.076l-67.884-298.665h122.624c11.776 0 21.335-9.559 21.335-21.335s-9.559-21.332-21.335-21.332h-149.332c-6.484 0-12.628 2.944-16.684 8.020-4.052 5.036-5.588 11.692-4.137 18.007l77.568 341.332c2.217 9.772 10.836 16.64 20.82 16.64h157.1c105.856 0 192-86.144 192-192l-32.384-174.592c-1.879-10.112-10.668-17.408-20.951-17.408zM832.015 63.992c-58.793 0-106.665 47.828-106.665 106.665 0 58.839 47.872 106.668 106.665 106.668 58.796 0 106.668-47.828 106.668-106.668 0-58.836-47.872-106.665-106.668-106.665zM832.015 234.657c-35.284 0-64-28.713-64-64 0-35.284 28.716-63.997 64-63.997 35.287 0 64 28.713 64 63.997 0 35.287-28.713 64-64 64zM362.668 63.992c-58.796 0-106.668 47.828-106.668 106.665 0 58.839 47.872 106.668 106.668 106.668 58.793 0 106.665-47.828 106.665-106.668 0-58.836-47.872-106.665-106.665-106.665zM362.668 234.657c-35.287 0-64-28.713-64-64 0-35.284 28.713-63.997 64-63.997 35.284 0 64 28.713 64 63.997 0 35.287-28.716 64-64 64zM277.35 533.332h-170.667c-11.776 0-21.334 9.559-21.334 21.335s9.558 21.332 21.334 21.332h170.667c11.776 0 21.332-9.556 21.332-21.332s-9.556-21.335-21.332-21.335zM277.317 405.332h-213.334c-11.776 0-21.333 9.559-21.333 21.335s9.557 21.332 21.333 21.332h213.334c11.776 0 21.332-9.556 21.332-21.332s-9.556-21.335-21.332-21.335zM277.332 277.332h-255.999c-11.776 0-21.333 9.559-21.333 21.335s9.557 21.332 21.333 21.332h255.999c11.776 0 21.335-9.556 21.335-21.332s-9.559-21.335-21.335-21.335zM597.317 149.325h-149.335c-11.776 0-21.332 9.556-21.332 21.332s9.556 21.335 21.332 21.335h132.311l96.937 426.665h-485.247c-11.776 0-21.333 9.559-21.333 21.335s9.557 21.332 21.333 21.332h511.999c6.487 0 12.631-2.944 16.684-8.020 4.055-5.036 5.591-11.692 4.14-18.007l-106.668-469.332c-2.22-9.772-10.88-16.64-20.82-16.64z" />
<glyph unicode="&#xe916;" glyph-name="Return" d="M682.667 144.592h-575.488c-27.724 0-50.29 22.568-50.29 50.29v461.71c0 10.468 8.496 18.964 18.963 18.964h720.592c10.468 0 18.964-8.496 18.964-18.964v-151.703c0-10.468-8.496-18.964-18.964-18.964s-18.964 8.496-18.964 18.964v132.742h-682.666v-442.749c0-6.827 5.537-12.362 12.364-12.362h575.488c10.468 0 18.964-8.496 18.964-18.964s-8.496-18.964-18.964-18.964zM796.444 637.631c-6.676 0-13.161 3.527-16.612 9.822l-114.537 207.91c-3.3 6.068-9.671 9.823-16.612 9.823h-425.073c-6.94 0-13.312-3.755-16.612-9.823l-114.536-207.91c-5.044-9.216-16.65-12.439-25.752-7.472-9.178 5.046-12.516 16.612-7.471 25.754l114.536 207.909c9.975 18.204 29.089 29.468 49.835 29.468h425.113c20.745 0 39.859-11.264 49.835-29.431l114.497-207.91c5.083-9.179 1.744-20.708-7.433-25.751-2.921-1.633-6.070-2.389-9.179-2.389zM436.184 637.631c-10.468 0-18.961 8.494-18.961 18.961v227.556c0 10.468 8.494 18.963 18.961 18.963s18.964-8.496 18.964-18.963v-227.556c0-10.468-8.496-18.961-18.964-18.961zM948.147-7.111c-10.468 0-18.961 8.496-18.961 18.964v75.85c0 115.029-93.602 208.594-208.594 208.594h-75.85c-10.468 0-18.964 8.494-18.964 18.961s8.496 18.964 18.964 18.964h75.85c135.927 0 246.519-110.592 246.519-246.519v-75.85c0-10.468-8.496-18.964-18.964-18.964zM777.481 182.517c-4.361 0-8.761 1.516-12.325 4.588l-132.742 113.781c-4.247 3.564-6.636 8.835-6.636 14.373s2.389 10.809 6.636 14.373l132.742 113.778c7.927 6.79 19.834 5.916 26.738-2.048 6.827-7.925 5.879-19.911-2.085-26.738l-115.903-99.365 115.94-99.405c7.964-6.827 8.875-18.773 2.085-26.738-3.829-4.361-9.102-6.599-14.45-6.599z" />
<glyph unicode="&#xe917;" glyph-name="Vector1" d="M704.015 799.98c-0.005 37.54 13.194 73.887 37.279 102.681 24.090 28.794 57.533 48.202 94.484 54.827s75.054 0.048 107.643-18.583c32.594-18.631 57.595-48.128 70.636-83.332 13.036-35.203 13.281-73.87 0.691-109.236s-37.217-65.179-69.565-84.222c-32.353-19.043-70.369-26.105-107.402-19.95s-70.723 25.137-95.171 53.623l-429.953-199.68c9.884-31.324 9.884-64.932 0-96.257l429.953-199.68c25.846 30.060 61.932 49.454 101.258 54.42 39.332 4.972 79.104-4.833 111.616-27.52s55.444-56.632 64.353-95.258c8.909-38.63 3.159-79.191-16.133-113.823s-50.755-60.867-88.289-73.626c-37.535-12.754-78.469-11.126-114.867 4.577-36.403 15.708-65.674 44.365-82.15 80.42-16.471 36.060-18.975 76.948-7.020 114.744l-429.953 199.68c-21.284-24.806-49.654-42.496-81.294-50.693s-65.031-6.508-95.683 4.838c-30.651 11.351-57.092 31.811-75.765 58.634-18.673 26.829-28.683 58.726-28.683 91.412 0 32.685 10.010 64.586 28.683 91.411s45.114 47.288 75.765 58.636c30.651 11.348 64.043 13.037 95.683 4.838s60.010-25.889 81.294-50.693l429.953 199.68c-4.895 15.573-7.378 31.804-7.363 48.128z" />
<glyph unicode="&#xe918;" glyph-name="XMLID_1605" horiz-adv-x="1050" d="M963.886 497.969c29.696 85.317 8.435 179.878-56.069 244.381-45.606 45.608-107.328 70.28-171.369 69.060-5.722 15.856-13.215 31.094-22.456 45.418-22.797 35.34-54.889 63.534-92.803 81.534-9.976 4.736-21.906 0.488-26.642-9.49-4.739-9.978-0.489-21.908 9.49-26.646 64.248-30.502 105.764-96.14 105.764-167.224 0-11.046 8.952-20 19.999-20s20.001 8.954 20.001 20c0 12.262-1.024 24.418-2.972 36.376 49.713-1.474 97.121-21.728 132.705-57.312 50.066-50.066 68.762-121.933 50.875-188.967-38.134 25.61-83.988 40.571-133.276 40.571-11.044 0-19.999-8.955-19.999-20.001 0-11.044 8.955-19.999 19.999-19.999 110.098-0.003 199.667-89.572 199.667-199.67 0-110.095-89.569-199.665-199.667-199.665-2.98 0-5.955 0.090-8.922 0.22 50.55 44.332 80.648 109.066 80.707 177.638 0.005 7.16-3.814 13.773-10.015 17.347-63.795 36.762-141.076 41.324-208.151 13.696-9.613 71.898-52.204 136.543-115.935 173.412-6.198 3.584-13.834 3.584-20.032 0-63.731-36.867-106.322-101.514-115.932-173.412-67.072 27.625-144.351 23.063-208.147-13.696-6.202-3.576-10.020-10.189-10.014-17.347 0.058-68.572 30.158-133.307 80.707-177.638-2.972-0.133-5.947-0.22-8.931-0.22-110.098 0-199.668 89.569-199.668 199.665 0 110.098 89.57 199.667 199.666 199.667 11.045 0 20 8.955 20 20.001 0 11.044-8.955 19.999-20 19.999-49.286 0-95.142-14.961-133.274-40.571-17.89 67.034 0.808 138.903 50.874 188.967 35.584 35.586 82.982 55.838 132.705 57.312-1.948-11.958-2.972-24.112-2.972-36.376 0-11.046 8.955-20 20.001-20s19.999 8.954 19.999 20c0 71.084 41.516 136.722 105.764 167.226 9.979 4.738 14.226 16.666 9.49 26.646-4.736 9.978-16.666 14.228-26.642 9.49-37.916-18-70.006-46.194-92.803-81.534-9.239-14.324-16.735-29.562-22.454-45.416-64.042 1.224-125.763-23.456-171.37-69.064-64.502-64.501-85.764-159.065-56.068-244.38-44.94-43.589-72.916-104.566-72.916-171.968 0-132.152 107.514-239.665 239.666-239.665 19.667 0 39.169 2.386 58.090 7.096 33.293-16.755 69.727-25.16 106.189-25.16 13.402 0 26.803 1.157 40.054 3.42v-115.692c0-11.046 8.952-19.999 19.999-19.999h96c11.046 0 20.001 8.952 20.001 19.999v115.694c13.251-2.263 26.655-3.42 40.061-3.42 36.454 0 72.896 8.402 106.186 25.157 18.918-4.71 38.418-7.096 58.086-7.096 132.152 0 239.667 107.512 239.667 239.665 0 67.402-27.976 128.379-72.914 171.968zM524.8 467.817c51.546-34.125 84.221-91.013 87.693-152.686-39.094-25.37-69.343-61.583-87.688-103.352-18.35 41.772-48.602 77.988-87.698 103.355 3.474 61.676 36.15 118.561 87.693 152.684zM318.738 134.42c-57.011 32.916-93.678 92.7-97.682 158.031 58.58 29.192 128.691 27.333 185.7-5.581 57.011-32.916 93.678-92.7 97.682-158.031-58.58-29.189-128.691-27.331-185.7 5.581zM552.801-23.997h-56.003v106.199c9.533 3.42 18.888 7.473 28.006 12.155 9.114-4.68 18.465-8.732 27.996-12.15v-106.204zM545.17 128.842c4.009 65.326 40.673 125.117 97.682 158.031 57.011 32.916 127.119 34.775 185.7 5.581-4.004-65.334-40.671-125.117-97.682-158.034-57.011-32.914-127.122-34.778-185.7-5.578z" />
<glyph unicode="&#xe919;" glyph-name="Eye" d="M989.24 460.96c-1.403 3.16-35.282 78.32-110.602 153.64-100.357 100.36-227.118 153.4-366.639 153.4s-266.28-53.040-366.64-153.4c-75.32-75.32-109.36-150.6-110.6-153.64-1.819-4.092-2.76-8.521-2.76-13.001s0.94-8.909 2.76-13c1.4-3.159 35.28-78.28 110.6-153.6 100.36-100.321 227.12-153.359 366.64-153.359s266.281 53.038 366.639 153.359c75.32 75.32 109.199 150.441 110.602 153.6 1.818 4.091 2.76 8.52 2.76 13s-0.942 8.908-2.76 13.001zM511.999 192c-123.12 0-230.68 44.759-319.72 133.002-36.534 36.332-67.616 77.757-92.28 122.998 24.657 45.242 55.74 86.673 92.28 123 89.040 88.24 196.6 133 319.72 133s230.682-44.76 319.719-133c36.608-36.318 67.758-77.749 92.483-123-28.841-53.842-154.481-256-412.201-256zM511.999 640c-37.974 0-75.095-11.26-106.67-32.358s-56.183-51.083-70.715-86.167c-14.532-35.083-18.334-73.69-10.926-110.933s25.694-71.455 52.546-98.309c26.852-26.849 61.063-45.138 98.307-52.541 37.244-7.409 75.848-3.61 110.935 10.926 35.082 14.531 65.065 39.137 86.164 70.712s32.358 68.695 32.358 106.67c-0.051 50.905-20.301 99.71-56.294 135.706s-84.803 56.241-135.706 56.294zM511.999 320c-25.316 0-50.063 7.506-71.113 21.571s-37.456 34.058-47.144 57.446c-9.688 23.388-12.222 49.125-7.284 73.955s17.129 47.637 35.031 65.538c17.902 17.901 40.709 30.092 65.539 35.031s50.567 2.404 73.955-7.284c23.388-9.688 43.382-26.094 57.446-47.143s21.571-45.797 21.571-71.113c0-33.946-13.486-66.504-37.489-90.511-24.008-24.003-56.566-37.489-90.512-37.489z" />
<glyph unicode="&#xe91a;" glyph-name="Repeat" d="M96.025 447.985c0.085 76.354 30.455 149.559 84.447 203.551s127.197 84.362 203.553 84.447h434.76l-41.4 41.36c-6.006 6.004-9.38 14.148-9.38 22.64s3.374 16.635 9.38 22.64c6.006 6.005 14.147 9.378 22.641 9.378 8.489 0 16.635-3.373 22.641-9.378l96-96c2.975-2.972 5.335-6.501 6.943-10.386 1.613-3.885 2.442-8.049 2.442-12.254s-0.829-8.369-2.442-12.254c-1.608-3.885-3.968-7.414-6.943-10.386l-96-96c-6.006-6.004-14.152-9.378-22.641-9.378-8.494 0.001-16.635 3.374-22.641 9.378s-9.38 14.149-9.38 22.64c0 8.492 3.374 16.635 9.38 22.64l41.4 41.36h-434.76c-59.389-0.063-116.327-23.684-158.322-65.678s-65.615-98.933-65.678-158.319c0-8.489-3.372-16.63-9.373-22.63s-14.14-9.37-22.627-9.37c-8.487 0-16.626 3.369-22.627 9.37s-9.373 14.141-9.373 22.63zM896.026 479.982c-8.489 0-16.625-3.372-22.63-9.373-6.001-6.001-9.37-14.14-9.37-22.625-0.061-59.392-23.685-116.332-65.679-158.326s-98.934-65.613-158.321-65.674h-434.76l41.4 41.359c2.973 2.97 5.331 6.502 6.941 10.383 1.609 3.886 2.437 8.049 2.437 12.257 0 4.204-0.828 8.366-2.437 12.252-1.609 3.881-3.967 7.414-6.941 10.383-2.973 2.975-6.503 5.335-10.387 6.943s-8.048 2.437-12.253 2.437c-4.205 0-8.368-0.829-12.253-2.437s-7.414-3.968-10.387-6.943l-96-96c-2.975-2.97-5.336-6.497-6.946-10.383s-2.439-8.049-2.439-12.252c0-4.209 0.829-8.371 2.439-12.257s3.971-7.414 6.946-10.383l96-96c2.973-2.975 6.503-5.335 10.387-6.943s8.048-2.437 12.253-2.437c4.205 0 8.368 0.829 12.253 2.437s7.414 3.968 10.387 6.943c2.973 2.97 5.331 6.502 6.941 10.383 1.609 3.886 2.437 8.049 2.437 12.257 0 4.204-0.828 8.366-2.437 12.252-1.609 3.881-3.967 7.414-6.941 10.383l-41.4 41.364h434.76c76.355 0.082 149.56 30.454 203.551 84.444 53.996 53.99 84.362 127.196 84.449 203.556 0 8.484-3.374 16.624-9.375 22.625s-14.136 9.373-22.625 9.373z" />
<glyph unicode="&#xe91b;" glyph-name="delivery-truck-11" horiz-adv-x="1041" d="M824.185 576.196h-60.887l18.345 211.871c0.034 0.384 0.041 0.761 0.043 1.14 0 0.032 0.003 0.063 0.003 0.094 0 0.007 0 0.010 0 0.015 0 5.767-3.459 10.85-8.542 13.060-0.043 0.019-0.085 0.042-0.128 0.061-0.316 0.133-0.642 0.247-0.971 0.357-0.123 0.040-0.241 0.089-0.364 0.127-0.268 0.082-0.543 0.146-0.817 0.213-0.193 0.046-0.377 0.101-0.572 0.139-0.241 0.048-0.49 0.078-0.736 0.114-0.23 0.034-0.457 0.074-0.689 0.095-0.039 0.004-0.075 0.011-0.114 0.015-0.249 0.023-0.495 0.019-0.742 0.029-0.167 0.006-0.329 0.025-0.495 0.025h-0.177c-0.015 0-0.031 0-0.044 0h-289.702c-7.82 0-14.167-6.384-14.167-14.251 0-7.847 6.347-14.249 14.167-14.249h274.481l-28.194-325.618c-0.003-0.026-0.003-0.049-0.007-0.073l-7.113-82.161h-492.264l8.235 85.499h93.728c7.825 0 14.167 6.38 14.167 14.249 0 7.871-6.342 14.251-14.167 14.251h-90.982l17.386 180.494h149.175c7.827 0 14.167 6.38 14.167 14.251 0 7.869-6.34 14.249-14.167 14.249h-146.429l8.175 84.861h157.143c7.801 0 14.167 6.402 14.167 14.249 0 7.867-6.366 14.251-14.167 14.251h-170.001c-0.007 0-0.014-0.002-0.020-0.002-6.654 0.002-12.426-4.71-13.822-11.242-0.010-0.048-0.027-0.093-0.036-0.141-0.072-0.355-0.119-0.718-0.167-1.083-0.014-0.116-0.038-0.226-0.049-0.342-0.002-0.023-0.007-0.044-0.009-0.066l-9.679-100.484h-171.737c-7.826 0-14.167-6.38-14.167-14.249 0-7.871 6.341-14.251 14.167-14.251h168.989l-17.384-180.494h-50.545c-7.826 0-14.167-6.38-14.167-14.251 0-7.869 6.341-14.249 14.167-14.249h47.801l-9.469-98.272c-0.002-0.015-0.002-0.031-0.003-0.044l-14.636-151.962c-0.002-0.017-0.003-0.038-0.005-0.053l-0.007-0.055c-0.019-0.198-0.017-0.391-0.027-0.589-0.014-0.263-0.041-0.519-0.041-0.785 0-0.010 0.002-0.022 0.002-0.036 0-0.367 0.027-0.727 0.053-1.089 0.012-0.116 0.009-0.234 0.022-0.348 0.038-0.369 0.099-0.73 0.166-1.092 0.019-0.106 0.029-0.213 0.049-0.319 0.055-0.273 0.131-0.538 0.203-0.806 0.049-0.188 0.089-0.379 0.147-0.563 0.015-0.051 0.039-0.101 0.055-0.155 0.684-2.12 1.848-4.024 3.367-5.577 0.029-0.029 0.051-0.061 0.079-0.087 0.152-0.154 0.316-0.29 0.474-0.433 0.976-0.901 2.080-1.666 3.287-2.263 0.251-0.126 0.498-0.258 0.756-0.365 0.077-0.034 0.16-0.056 0.239-0.087 0.355-0.143 0.713-0.28 1.080-0.396 0.034-0.009 0.067-0.015 0.101-0.026 0.42-0.126 0.843-0.236 1.275-0.326 0.056-0.010 0.116-0.015 0.171-0.026 0.411-0.079 0.824-0.145 1.246-0.186 0.010 0 0.017-0.003 0.027-0.005 0.464-0.044 0.925-0.068 1.382-0.068 0.005 0 0.014 0.002 0.020 0.002h63.066c6.965-53.111 52.233-94.247 106.906-94.247 54.671 0 99.937 41.136 106.902 94.247h227.232c6.967-53.111 52.233-94.247 106.904-94.247s99.942 41.136 106.907 94.247h63.082c0.010 0 0.020-0.002 0.031-0.002 0.473 0 0.937 0.029 1.398 0.075 0.084 0.007 0.162 0.024 0.246 0.034 0.369 0.043 0.734 0.094 1.094 0.167 0.154 0.031 0.304 0.072 0.457 0.108 0.276 0.065 0.556 0.133 0.828 0.215 0.186 0.055 0.365 0.119 0.546 0.183 0.232 0.080 0.466 0.164 0.693 0.256 0.198 0.079 0.384 0.164 0.575 0.249 0.208 0.097 0.415 0.196 0.618 0.3 0.193 0.099 0.377 0.201 0.563 0.307 0.195 0.114 0.387 0.232 0.577 0.353 0.177 0.114 0.355 0.23 0.526 0.352 0.193 0.135 0.375 0.278 0.563 0.422 0.155 0.125 0.311 0.246 0.463 0.375 0.195 0.166 0.377 0.338 0.563 0.514 0.128 0.125 0.263 0.246 0.387 0.375 0.196 0.201 0.382 0.415 0.57 0.628 0.101 0.116 0.203 0.229 0.3 0.346 0.208 0.258 0.396 0.524 0.585 0.792 0.065 0.094 0.137 0.181 0.198 0.276 0.23 0.346 0.449 0.705 0.649 1.073 0.015 0.022 0.031 0.043 0.039 0.068 0.213 0.394 0.41 0.799 0.585 1.217 0.049 0.119 0.087 0.244 0.135 0.364 0.114 0.294 0.229 0.589 0.324 0.894 0.063 0.198 0.108 0.401 0.162 0.601 0.063 0.237 0.13 0.473 0.183 0.715 0.046 0.215 0.077 0.435 0.113 0.654 0.032 0.191 0.073 0.379 0.099 0.575 0.601 4.842 11.694 94.368 16.649 152.259 0.005 0.056 0.007 0.113 0.012 0.167 1.427 16.688 2.342 30.74 2.342 39.344 0 102.147-82.616 185.254-184.168 185.254zM760.83 547.692h57.957l-7.402-85.494h-57.958l7.404 85.494zM364.257 120.941c-43.855 0-79.531 35.888-79.531 79.998 0 44.112 35.68 80 79.531 80 43.853 0 79.531-35.888 79.531-80s-35.678-79.998-79.531-79.998zM805.292 120.941c-43.853 0-79.527 35.888-79.527 79.998 0 44.112 35.676 80 79.527 80 43.855 0 79.532-35.888 79.532-80s-35.678-79.998-79.532-79.998zM962.765 215.195h-50.56c-6.963 53.117-52.233 94.254-106.909 94.254-54.671 0-99.941-41.139-106.904-94.254h-227.229c-6.963 53.117-52.231 94.254-106.906 94.254-54.673 0-99.944-41.139-106.907-94.254h-47.495l11.899 123.51 507.991-0.007c0.007 0 0.012 0 0.020 0 0.474 0 0.944 0.026 1.408 0.073 0.087 0.009 0.172 0.027 0.259 0.039 0.37 0.043 0.739 0.096 1.101 0.169 0.157 0.032 0.311 0.075 0.466 0.113 0.283 0.070 0.567 0.135 0.841 0.218 0.189 0.058 0.369 0.126 0.551 0.191 0.239 0.084 0.476 0.166 0.707 0.259 0.2 0.082 0.389 0.174 0.582 0.265 0.21 0.097 0.42 0.195 0.621 0.3 0.193 0.102 0.382 0.213 0.573 0.323 0.195 0.114 0.387 0.23 0.575 0.352 0.184 0.119 0.357 0.246 0.532 0.37 0.188 0.133 0.369 0.27 0.55 0.413 0.164 0.131 0.324 0.266 0.483 0.404 0.179 0.155 0.355 0.316 0.524 0.481 0.143 0.138 0.288 0.28 0.427 0.427 0.171 0.179 0.335 0.364 0.498 0.551 0.126 0.148 0.251 0.297 0.372 0.449 0.155 0.2 0.305 0.404 0.452 0.611 0.111 0.157 0.22 0.312 0.326 0.471 0.137 0.215 0.27 0.435 0.396 0.66 0.096 0.167 0.195 0.335 0.282 0.505 0.119 0.224 0.22 0.452 0.328 0.681 0.084 0.184 0.169 0.365 0.244 0.556 0.092 0.224 0.171 0.454 0.251 0.683 0.070 0.203 0.145 0.408 0.207 0.616 0.063 0.22 0.113 0.447 0.171 0.671 0.055 0.227 0.114 0.451 0.159 0.681 0.043 0.224 0.070 0.452 0.104 0.679 0.032 0.236 0.073 0.468 0.096 0.707 0.003 0.034 0.012 0.067 0.014 0.101l7.1 81.987h73.218c43.406 0 62.981-22.622 83.705-46.573 17.099-19.761 36.19-41.812 68.642-47.191-4.122-43.834-10.784-100.105-13.764-124.745zM978.951 368.498c-21.052 4.316-34.005 19.203-49.696 37.337-19.623 22.678-43.58 50.352-89.504 55.508l7.328 84.642c75.11-11.174 132.941-76.435 132.941-155.046 0-5.34-0.396-13.1-1.068-22.441zM320.85 200.95c0 24.146 19.529 43.716 43.411 43.716s43.412-19.572 43.412-43.716c0-24.148-19.531-43.718-43.412-43.718s-43.411 19.57-43.411 43.718zM332.117 200.95c0-17.763 14.363-32.285 32.143-32.285 17.778 0 32.145 14.522 32.145 32.285 0 17.761-14.365 32.283-32.145 32.283s-32.143-14.522-32.143-32.283zM761.892 200.95c0 24.146 19.529 43.716 43.411 43.716s43.411-19.572 43.411-43.716c0-24.148-19.529-43.718-43.411-43.718s-43.411 19.57-43.411 43.718zM773.159 200.95c0-17.763 14.363-32.285 32.143-32.285s32.145 14.522 32.145 32.285c0 17.761-14.365 32.283-32.145 32.283s-32.143-14.522-32.143-32.283zM175.358 576.2h-69.258c-7.826 0-14.167-6.38-14.167-14.251 0-7.869 6.341-14.249 14.167-14.249h69.258c7.825 0 14.167 6.38 14.167 14.249 0 7.871-6.342 14.251-14.167 14.251z" />
<glyph unicode="&#xe91c;" glyph-name="guarantee" horiz-adv-x="1041" d="M988.095 393.037c-5.403 19.574-10.489 38.076-10.489 54.958s5.086 35.383 10.489 54.956c8.598 31.159 17.469 63.389 6.854 94.715-11.017 32.587-38.472 53.885-65.022 74.447-15.915 12.341-30.945 23.987-40.701 36.813-9.923 13.076-16.944 30.527-24.344 49.007-12.215 30.358-24.827 61.769-53.081 81.49-27.793 19.426-62.479 21.297-95.969 23.085-20.896 1.114-40.656 2.187-57.201 7.337-15.473 4.815-31.493 14.801-48.437 25.376-27.266 17.030-58.191 36.33-93.949 36.33-35.76 0-66.685-19.3-93.95-36.351-16.944-10.575-32.922-20.583-48.415-25.376-16.565-5.151-36.326-6.223-57.223-7.337-33.51-1.808-68.156-3.658-95.968-23.085-28.256-19.721-40.868-51.111-53.082-81.469-7.442-18.48-14.463-35.951-24.386-49.027-9.754-12.868-24.785-24.515-40.7-36.878-26.53-20.582-53.944-41.837-64.959-74.383-10.616-31.346-1.745-63.556 6.832-94.734 5.403-19.574 10.49-38.055 10.49-54.938s-5.087-35.383-10.49-54.956c-8.577-31.159-17.449-63.387-6.832-94.756 11.016-32.546 38.45-53.844 64.98-74.404 15.914-12.32 30.945-23.989 40.679-36.815 9.944-13.076 16.965-30.527 24.386-49.027 12.214-30.36 24.849-61.769 53.123-81.533 27.771-19.384 62.437-21.234 95.927-23.021 20.896-1.114 40.658-2.186 57.202-7.337 15.473-4.815 31.471-14.802 48.393-25.356 27.288-17.009 58.213-36.33 93.993-36.33s66.726 19.321 94.032 36.352c16.923 10.554 32.901 20.54 48.394 25.354 16.544 5.151 36.306 6.224 57.202 7.339 33.51 1.787 68.156 3.637 95.927 23.021 28.317 19.761 40.929 51.214 53.144 81.594 7.421 18.459 14.421 35.91 24.303 48.944 9.754 12.826 24.784 24.494 40.699 36.815 26.551 20.582 53.985 41.858 65.022 74.424 10.617 31.369 1.724 63.577-6.874 94.756zM955.129 311.759c-6.958-20.562-28.337-37.129-50.958-54.663-17.343-13.455-35.297-27.373-48.415-44.614-13.309-17.575-21.717-38.473-29.853-58.72-10.363-25.818-20.161-50.185-38.176-62.758-17.952-12.53-45.22-13.981-74.103-15.515-22.559-1.2-45.914-2.439-67.483-9.167-20.623-6.455-39.711-18.333-58.148-29.855-24.702-15.432-48.015-29.981-71.75-29.981s-47.027 14.549-71.729 29.981c-18.415 11.5-37.482 23.4-58.126 29.855-21.571 6.705-44.926 7.967-67.483 9.167-28.885 1.534-56.172 3.005-74.103 15.515-17.995 12.573-27.814 36.939-38.178 62.735-8.136 20.246-16.565 41.167-29.894 58.742-13.096 17.241-31.049 31.159-48.414 44.634-22.599 17.534-43.958 34.080-50.917 54.642-6.496 19.152 0.336 43.919 7.547 70.115 5.886 21.424 11.983 43.54 11.983 66.142s-6.096 44.698-11.983 66.121c-7.232 26.196-14.043 50.941-7.547 70.095 6.959 20.562 28.296 37.108 50.896 54.642 17.365 13.476 35.339 27.414 48.415 44.675 13.37 17.577 21.779 38.516 29.937 58.762 10.342 25.796 20.139 50.143 38.113 62.673 17.954 12.551 45.261 14.002 74.168 15.537 22.535 1.219 45.891 2.46 67.439 9.187 20.666 6.433 39.753 18.354 58.211 29.875 24.66 15.369 47.954 29.917 71.666 29.917 23.714 0 47.027-14.549 71.707-29.959 18.458-11.542 37.526-23.442 58.191-29.875 21.548-6.707 44.884-7.947 67.441-9.167 28.906-1.535 56.194-3.027 74.146-15.558 17.995-12.572 27.791-36.919 38.135-62.672 8.156-20.268 16.544-41.187 29.914-58.764 13.097-17.239 31.051-31.157 48.394-44.612 22.62-17.555 44-34.123 50.958-54.726 6.496-19.111-0.357-43.856-7.567-70.052-5.908-21.424-12.005-43.542-12.005-66.144 0-22.6 6.076-44.718 12.005-66.12 7.235-26.197 14.063-50.942 7.567-70.095zM516.255 763.366c-173.877 0-315.337-141.471-315.337-315.361 0-173.892 141.46-315.363 315.337-315.363s315.337 141.471 315.337 315.363c0 173.891-141.46 315.361-315.337 315.361zM516.255 174.691c-150.69 0-273.294 122.612-273.294 273.314 0 150.7 122.604 273.312 273.294 273.312 77.72 0 147.787-32.777 197.612-85.041l-200.346-281.955-108.539 108.547c-8.219 8.221-21.506 8.221-29.725 0-8.221-8.221-8.221-21.507 0-29.728l126.135-126.145c3.953-3.973 9.313-6.159 14.863-6.159 0.567 0 1.176 0.020 1.765 0.084 6.159 0.505 11.795 3.721 15.369 8.767l208.060 292.825c30.271-43.983 48.099-97.174 48.099-154.506 0-150.702-122.604-273.314-273.292-273.314z" />
<glyph unicode="&#xe91d;" glyph-name="phone-call" horiz-adv-x="1041" d="M933.385 874.667h-314.568c-7.078 0-12.812-5.694-12.812-12.722s5.734-12.722 12.812-12.722h314.568c19.357 0 35.106-15.638 35.106-34.858v-327.603c0-19.22-15.749-34.859-35.106-34.859h-50.244c-2.7 0-5.33-0.847-7.516-2.418l-87.368-62.831v52.528c0 7.028-5.736 12.721-12.814 12.721h-278.11c-19.359 0-35.108 15.638-35.108 34.859v327.603c0 19.22 15.751 34.858 35.108 34.858h65.654c7.078 0 12.814 5.694 12.814 12.722s-5.736 12.722-12.814 12.722h-65.654c-33.49 0-60.733-27.050-60.733-60.302v-327.603c0-33.251 27.245-60.302 60.733-60.302h265.296v-64.73c0-4.78 2.7-9.156 6.989-11.331 4.543-2.15 8.991-1.809 13.343 1.026l104.332 75.034h46.092c33.49 0 60.733 27.051 60.733 60.302v327.604c0 33.25-27.245 60.302-60.733 60.302zM851.478 180.265c-2.92 20.864-15.2 38.603-33.729 48.7l-62.256 33.918c-6.787 3.705-15.29 1.196-18.99-5.598-3.695-6.789-1.191-15.292 5.6-18.99l62.247-33.915c10.651-5.803 17.708-15.99 19.396-27.972 0.009-0.075 0.019-0.152 0.029-0.227 1.633-12.104-2.485-23.909-11.296-32.381l-9.175-8.81-229.827 129.319 27.010 23.759c11.522 10.138 28.295 12.010 41.752 4.659l38.844-21.169c6.789-3.698 15.292-1.196 18.992 5.594 3.698 6.789 1.196 15.292-5.594 18.992l-38.833 21.164c-23.731 12.957-53.335 9.66-73.649-8.216l-62.944-55.364c-12.894-11.339-31.71-12.392-45.756-2.553-94.809 66.418-163.657 139.488-210.483 223.375-7.895 14.164-5.69 31.631 5.485 43.464l49.824 52.695c18.577 19.671 22.932 49.138 10.837 73.329l-83.845 167.688c-9.339 18.705-26.494 31.59-47.061 35.353-20.581 3.771-41.198-2.216-56.571-16.411l-31.844-29.419c-35.2-32.516-58.495-74.567-67.365-121.601-8.887-47.113-2.419-94.638 18.701-137.455 0.093-0.196 0.181-0.369 0.254-0.51 13.384-27.066 27.855-53.533 42.986-78.621 2.526-4.222 5.249-8.684 8.090-13.263 4.078-6.567 12.708-8.586 19.278-4.509 6.568 4.077 8.588 12.71 4.512 19.279-2.761 4.448-5.404 8.777-7.877 12.911-14.739 24.439-28.816 50.183-41.843 76.518-0.073 0.154-0.147 0.302-0.224 0.452-36.802 74.464-20.359 165.832 39.777 223.623l126.251-236.36-4.227-4.471c-19.616-20.763-23.472-51.439-9.59-76.334 48.934-87.665 120.525-163.77 218.871-232.668 11.29-7.904 24.327-11.805 37.321-11.805 15.394 0 30.722 5.48 42.991 16.271l13.658 12.013 231.006-129.983-0.234-0.224c-59.544-57.207-148.743-70.226-221.955-32.394-158.689 82.026-287.695 190.455-383.43 322.27-4.545 6.258-13.299 7.648-19.554 3.101-6.257-4.545-7.644-13.297-3.101-19.555 98.324-135.38 230.625-246.642 393.226-330.694 32.007-16.538 66.664-24.595 101.096-24.595 55.782 0 110.949 21.163 153.108 61.669l30.508 29.295c15.217 14.631 22.385 34.968 19.705 55.863-0.026 0.268-0.061 0.529-0.102 0.794zM147.144 797.779l13.339 12.321c8.84 8.162 20.692 11.599 32.533 9.437 11.822-2.163 21.683-9.57 27.056-20.329l83.847-167.694c6.859-13.716 4.388-30.426-6.144-41.576l-25.313-26.772-125.317 234.613zM889.303 644.431c0 26.965-21.937 48.903-48.903 48.903-26.962 0-48.899-21.937-48.899-48.903 0-26.964 21.937-48.901 48.899-48.901 26.965 0 48.903 21.937 48.903 48.901zM819.497 644.431c0 11.527 9.376 20.903 20.902 20.903s20.905-9.376 20.905-20.903-9.378-20.902-20.905-20.902c-11.525 0-20.902 9.375-20.902 20.902zM759.67 644.431c0 26.965-21.937 48.903-48.901 48.903s-48.903-21.937-48.903-48.903c0-26.964 21.939-48.901 48.903-48.901s48.901 21.937 48.901 48.901zM689.864 644.431c0 11.527 9.378 20.903 20.903 20.903 11.527 0 20.903-9.376 20.903-20.903s-9.376-20.902-20.903-20.902c-11.525 0-20.903 9.375-20.903 20.902zM532.2 644.431c0-26.964 21.936-48.901 48.903-48.901s48.903 21.937 48.903 48.901c0 26.965-21.937 48.903-48.903 48.903s-48.903-21.937-48.903-48.903zM581.103 665.334c11.527 0 20.903-9.376 20.903-20.903s-9.376-20.902-20.903-20.902c-11.527 0-20.902 9.375-20.902 20.902s9.375 20.903 20.902 20.903z" />
<glyph unicode="&#xe91e;" glyph-name="Return1" horiz-adv-x="1041" d="M695.47 144.604h-575.489c-27.724 0-50.29 22.566-50.29 50.289v461.711c0 10.467 8.495 18.963 18.963 18.963h720.592c10.469 0 18.963-8.496 18.963-18.963v-151.704c0-10.467-8.494-18.963-18.963-18.963-10.467 0-18.963 8.496-18.963 18.963v132.741h-682.666v-442.749c0-6.827 5.537-12.363 12.364-12.363h575.489c10.467 0 18.963-8.496 18.963-18.963 0-10.469-8.496-18.963-18.963-18.963zM809.247 637.635c-6.675 0-13.16 3.528-16.611 9.824l-114.536 207.91c-3.301 6.068-9.672 9.823-16.613 9.823h-425.073c-6.941 0-13.312-3.755-16.613-9.823l-114.536-207.91c-5.044-9.216-16.65-12.44-25.752-7.472-9.178 5.045-12.516 16.611-7.471 25.752l114.537 207.91c9.974 18.204 29.088 29.468 49.835 29.468h425.112c20.745 0 39.859-11.264 49.835-29.43l114.499-207.91c5.081-9.178 1.744-20.707-7.434-25.752-2.92-1.63-6.069-2.389-9.178-2.389zM448.98 637.635c-10.467 0-18.963 8.496-18.963 18.963v227.556c0 10.467 8.496 18.963 18.963 18.963s18.963-8.495 18.963-18.963v-227.556c0-10.467-8.496-18.963-18.963-18.963zM960.954-7.1c-10.469 0-18.963 8.496-18.963 18.963v75.851c0 115.029-93.602 208.594-208.594 208.594h-75.851c-10.467 0-18.963 8.494-18.963 18.963 0 10.467 8.496 18.963 18.963 18.963h75.851c135.927 0 246.519-110.592 246.519-246.519v-75.851c0-10.467-8.496-18.963-18.963-18.963zM790.287 182.528c-4.362 0-8.762 1.517-12.326 4.589l-132.741 113.778c-4.248 3.565-6.637 8.835-6.637 14.374 0 5.536 2.389 10.808 6.637 14.374l132.741 113.778c7.926 6.789 19.835 5.917 26.737-2.048 6.827-7.927 5.879-19.912-2.086-26.738l-115.901-99.366 115.939-99.405c7.965-6.827 8.875-18.773 2.086-26.737-3.83-4.362-9.102-6.6-14.449-6.6z" />
<glyph unicode="&#xe920;" glyph-name="MapPin" d="M512 704c-31.645 0-62.579-9.384-88.891-26.965s-46.819-42.57-58.929-71.805c-12.11-29.236-15.279-61.407-9.105-92.444s21.412-59.546 43.788-81.922c22.376-22.374 50.886-37.617 81.923-43.791 31.037-6.17 63.209-3 92.445 9.108s54.226 32.614 71.803 58.928c17.582 26.312 26.967 57.246 26.967 88.891 0 42.435-16.855 83.131-46.863 113.137-30.003 30.006-70.702 46.863-113.137 46.863zM512 448c-18.987 0-37.548 5.63-53.335 16.179s-28.092 25.542-35.358 43.084c-7.266 17.542-9.167 36.844-5.463 55.466s12.847 35.728 26.273 49.154c13.426 13.426 30.532 22.569 49.154 26.273s37.923 1.803 55.464-5.463c17.541-7.266 32.538-19.57 43.085-35.358s16.179-34.348 16.179-53.335c0-25.461-10.112-49.879-28.119-67.882-18.002-18.003-42.419-28.118-67.881-28.118zM512 896c-93.324-0.106-182.795-37.225-248.785-103.215s-103.109-155.461-103.215-248.785c0-125.599 58.040-258.719 168-384.998 49.409-57.062 105.018-108.447 165.8-153.201 5.381-3.768 11.791-5.791 18.359-5.791s12.979 2.022 18.36 5.791c60.672 44.769 116.173 96.154 165.484 153.201 109.798 126.28 167.997 259.4 167.997 384.998-0.108 93.324-37.228 182.795-103.214 248.785-65.992 65.99-155.464 103.109-248.786 103.215zM512 71.997c-66.12 52.004-288 243-288 472.003 0 76.382 30.343 149.636 84.353 203.647s127.265 84.353 203.647 84.353c76.38 0 149.637-30.343 203.648-84.353s84.352-127.265 84.352-203.647c0-228.92-221.88-419.999-288-472.003z" />
<glyph unicode="&#xe923;" glyph-name="Vector-21" horiz-adv-x="1317" d="M1206.857 905.143h-1097.143c-12.124 0-23.752-4.816-32.325-13.389s-13.39-20.201-13.39-32.325v-777.143c0-24.247 9.633-47.506 26.779-64.651s40.401-26.778 64.65-26.778h1005.714c24.247 0 47.506 9.633 64.651 26.778s26.778 40.404 26.778 64.651v777.143c0 12.124-4.813 23.752-13.392 32.325-8.572 8.573-20.195 13.389-32.322 13.389zM1089.317 813.714l-431.031-395.143-431.029 395.143h862.060zM1161.143 82.286h-1005.714v673.2l471.943-432.629c8.434-7.742 19.466-12.038 30.915-12.038s22.48 4.296 30.915 12.038l471.943 432.629v-673.2z" />
<glyph unicode="&#xe924;" glyph-name="Vector2" horiz-adv-x="1152" d="M1136 618c0-350-518.95-633.302-541.050-645.002-5.825-3.13-12.335-4.774-18.95-4.774s-13.125 1.645-18.95 4.774c-22.1 11.699-541.050 295.002-541.050 645.002 0.093 82.189 32.783 160.984 90.899 219.101s136.912 90.807 219.101 90.899c103.25 0 193.65-44.4 250-119.45 56.35 75.050 146.752 119.45 249.997 119.45 82.189-0.093 160.986-32.783 219.104-90.899s90.81-136.912 90.899-219.101z" />
<glyph unicode="&#xe925;" glyph-name="uniE925" d="M1008.045 953.13c12.57-9.143 17.709-21.333 15.424-36.571l-146.285-877.717c-1.907-11.046-8-19.616-18.285-25.709-5.331-3.053-11.238-4.576-17.715-4.576-4.192 0-8.762 0.954-13.715 2.861l-301.142 122.854-170.285-186.854c-6.857-8-15.809-12-26.857-12-5.334 0-9.715 0.762-13.143 2.285-7.238 2.662-12.952 7.238-17.143 13.715-4.19 6.093-6.285 12.947-6.285 20.57v258.285l-269.714 110.287c-14.095 5.333-21.714 15.809-22.857 31.428-1.143 14.857 4.952 26.095 18.286 33.714l950.857 548.572c13.331 8 26.285 7.619 38.861-1.143zM812.614 96.557l126.285 756.002-819.429-472.572 192-78.285 493.144 365.142-273.144-455.427 281.144-114.861z" />
<glyph unicode="&#xe926;" horiz-adv-x="996" d="M731.468 492.015c-17.851 0-31.965 14.53-31.965 31.965 0 15.36-15.36 47.325-41.098 75.139-25.323 26.984-53.137 42.759-76.385 42.759-17.851 0-31.965 14.53-31.965 31.965s14.53 31.966 31.965 31.966c41.514 0 85.103-22.417 123.295-62.686 35.702-37.777 58.534-84.688 58.534-118.729 0-17.851-14.53-32.381-32.381-32.381z" />
<glyph unicode="&#xe927;" horiz-adv-x="996" d="M881.348 492.026c-17.851 0-31.965 14.53-31.965 31.965 0 147.373-119.974 266.932-266.932 266.932-17.851 0-31.965 14.53-31.965 31.965s14.115 32.381 31.55 32.381c182.659 0 331.278-148.618 331.278-331.278 0-17.436-14.53-31.965-31.965-31.965z" />
<glyph unicode="&#xe928;" horiz-adv-x="996" d="M489.444 348.39l-135.749-135.749c-14.945 13.284-29.475 26.984-43.589 41.098-42.759 43.174-81.366 88.424-115.823 135.749-34.041 47.325-61.44 94.651-81.366 141.561-19.926 47.325-29.89 92.575-29.89 135.749 0 28.23 4.982 55.214 14.945 80.122 9.963 25.323 25.738 48.571 47.741 69.328 26.569 26.154 55.628 39.023 86.348 39.023 11.624 0 23.248-2.491 33.626-7.472 10.794-4.982 20.342-12.454 27.814-23.248l96.311-135.749c7.472-10.379 12.869-19.927 16.605-29.060 3.736-8.718 5.812-17.436 5.812-25.323 0-9.963-2.906-19.926-8.718-29.475-5.397-9.548-13.284-19.511-23.248-29.475l-31.55-32.796c-4.566-4.566-6.642-9.963-6.642-16.605 0-3.321 0.415-6.227 1.245-9.548 1.245-3.321 2.491-5.812 3.321-8.303 7.472-13.699 20.342-31.55 38.608-53.137 18.681-21.587 38.608-43.589 60.195-65.591 14.945-14.53 29.475-28.644 44.004-41.098z" />
<glyph unicode="&#xe929;" horiz-adv-x="996" d="M912.063 177.368c0-11.624-2.076-23.663-6.227-35.286-1.245-3.321-2.491-6.642-4.151-9.963-7.057-14.945-16.19-29.059-28.229-42.344-20.342-22.417-42.759-38.608-68.082-48.986-0.415 0-0.83-0.415-1.245-0.415-24.493-9.963-51.062-15.36-79.706-15.36-42.344 0-87.594 9.963-135.334 30.305s-95.481 47.741-142.806 82.194c-16.19 12.039-32.381 24.081-47.741 36.95l135.749 135.749c11.624-8.718 22.002-15.36 30.72-19.926 2.076-0.83 4.566-2.076 7.472-3.321 3.321-1.245 6.642-1.661 10.378-1.661 7.057 0 12.454 2.488 17.021 7.055l31.55 31.135c10.378 10.378 20.342 18.269 29.89 23.25 9.548 5.809 19.096 8.715 29.475 8.715 7.888 0 16.19-1.661 25.323-5.397s18.681-9.133 29.059-16.19l137.41-97.554c10.794-7.472 18.266-16.19 22.832-26.569 4.151-10.378 6.642-20.757 6.642-32.381z" />
<glyph unicode="&#xe92a;" glyph-name="Frame-1" horiz-adv-x="1037" d="M467.2 784c0-2.871 0.772-5.69 2.236-8.16s3.566-4.499 6.086-5.878l46.799-25.59 26.122-62.538c1.216-2.912 3.267-5.4 5.894-7.15s5.713-2.683 8.869-2.683 6.243 0.933 8.87 2.683c2.627 1.75 4.677 4.238 5.894 7.15l26.121 62.538 46.801 25.59c2.519 1.377 4.621 3.409 6.086 5.878s2.236 5.289 2.236 8.16c0 2.872-0.772 5.691-2.236 8.16-1.466 2.47-3.567 4.5-6.086 5.878l-46.801 25.591-26.13 62.538c-1.216 2.913-3.267 5.4-5.894 7.15s-5.713 2.683-8.869 2.683-6.243-0.934-8.869-2.683c-2.628-1.75-4.678-4.238-5.894-7.15l-26.122-62.538-46.801-25.591c-2.518-1.379-4.617-3.409-6.080-5.879s-2.235-5.288-2.234-8.159zM542.6 798.246c3.187 1.743 5.687 4.52 7.086 7.872l13.514 32.37 13.522-32.37c1.4-3.352 3.899-6.129 7.086-7.872l26.048-14.246-26.056-14.245c-3.187-1.743-5.687-4.52-7.086-7.872l-13.514-32.37-13.522 32.37c-1.4 3.352-3.899 6.129-7.086 7.872l-26.048 14.245 26.056 14.246zM915.2 704c-15.692 0.012-31.040-4.596-44.131-13.248s-23.347-20.965-29.489-35.405-7.898-30.368-5.048-45.8c2.848-15.43 10.175-29.682 21.068-40.978-9.947-6.263-17.247-15.963-20.511-27.256s-2.266-23.391 2.804-33.996l-35.553-35.553c-11.052-11.045-22.724-21.452-34.961-31.167 1.198 2.284 1.823 4.824 1.82 7.402v213.736c8.125 9.213 13.428 20.571 15.274 32.716s0.159 24.566-4.863 35.777-13.164 20.741-23.453 27.451c-10.29 6.71-22.294 10.317-34.579 10.39s-24.33-3.392-34.698-9.98c-10.369-6.588-18.623-16.020-23.776-27.173-5.153-11.151-6.988-23.549-5.285-35.716s6.87-23.585 14.886-32.893c-43.222-40.531-100.253-63.087-159.506-63.087s-116.284 22.556-159.506 63.087c8.017 9.308 13.184 20.727 14.886 32.893 1.704 12.166-0.132 24.564-5.285 35.716s-13.407 20.585-23.776 27.173c-10.368 6.588-22.414 10.052-34.698 9.98-12.285-0.073-24.289-3.68-34.579-10.39s-18.432-16.239-23.453-27.451c-5.021-11.212-6.71-23.631-4.863-35.777 1.846-12.145 7.149-23.502 15.274-32.716v-213.736c-0.001-2.578 0.625-5.117 1.824-7.4-12.237 9.715-23.909 20.12-34.959 31.165l-35.555 35.552c5.070 10.606 6.067 22.705 2.803 33.997s-10.565 20.992-20.513 27.255c10.894 11.302 18.221 25.559 21.071 40.996 2.849 15.436 1.094 31.369-5.046 45.816s-16.394 26.767-29.486 35.428-28.443 13.279-44.14 13.279c-15.697 0-31.047-4.618-44.139-13.279s-23.346-20.982-29.486-35.428c-6.14-14.447-7.895-30.381-5.045-45.816 2.85-15.437 10.177-29.693 21.071-40.996-7.625-4.804-13.743-11.66-17.652-19.781s-5.45-17.18-4.449-26.136c1.002-8.957 4.507-17.452 10.114-24.508s13.088-12.39 21.586-15.392v-421.448c-9.344-3.284-17.44-9.386-23.171-17.464s-8.816-17.736-8.829-27.64v-32.2c0-4.243 1.686-8.314 4.686-11.314s7.070-4.686 11.314-4.686h128c4.243 0 8.314 1.686 11.314 4.686s4.686 7.071 4.686 11.314v32.2c-0.013 9.906-3.098 19.562-8.828 27.642-5.732 8.078-13.828 14.18-23.172 17.464v348.067l12.922-12.92c41.103-41.179 89.395-74.488 142.491-98.282l-106.538-308.954c-0.831-2.41-1.074-4.983-0.709-7.506s1.327-4.923 2.807-6.998c1.48-2.076 3.434-3.768 5.7-4.936 2.267-1.167 4.778-1.777 7.328-1.777h576c2.55 0 5.061 0.609 7.328 1.777s4.22 2.86 5.7 4.936c1.48 2.075 2.442 4.475 2.807 6.998s0.122 5.096-0.709 7.506l-106.525 308.956c53.093 23.793 101.385 57.102 142.488 98.28l12.922 12.92v-348.068c-9.347-3.283-17.444-9.384-23.177-17.463s-8.819-17.736-8.833-27.642v-32.2c0-4.243 1.686-8.314 4.686-11.314s7.071-4.686 11.314-4.686h128c4.243 0 8.314 1.686 11.314 4.686s4.686 7.071 4.686 11.314v32.2c-0.013 9.906-3.098 19.562-8.828 27.642-5.732 8.078-13.828 14.18-23.172 17.464v421.446c8.499 3.002 15.98 8.335 21.586 15.392 5.608 7.057 9.112 15.551 10.115 24.508 1.002 8.956-0.54 18.015-4.449 26.136-3.908 8.122-10.026 14.977-17.651 19.781 10.893 11.296 18.22 25.548 21.069 40.978 2.848 15.432 1.092 31.36-5.050 45.8s-16.397 26.753-29.489 35.405c-13.091 8.652-28.439 13.26-44.131 13.248zM915.2 672c9.494 0 18.774-2.815 26.668-8.090s14.045-12.771 17.679-21.541c3.633-8.772 4.582-18.423 2.73-27.734s-6.423-17.864-13.135-24.577c-6.714-6.712-15.267-11.284-24.577-13.135-9.311-1.852-18.962-0.902-27.734 2.732-8.771 3.633-16.266 9.784-21.541 17.678s-8.090 17.174-8.090 26.668c0.015 12.726 5.076 24.927 14.075 33.925s21.199 14.060 33.925 14.075zM899.2 64v416h32v-416h-32zM707.2 642.026c10.496-2.701 21.504-2.701 32 0v-178.026h-32v178.026zM723.2 736c6.33 0 12.516-1.876 17.778-5.393 5.263-3.516 9.364-8.515 11.786-14.362s3.055-12.282 1.821-18.488c-1.235-6.208-4.283-11.909-8.758-16.385s-10.177-7.523-16.385-8.758c-6.207-1.234-12.641-0.6-18.488 1.821s-10.845 6.524-14.362 11.786c-3.516 5.262-5.393 11.448-5.393 17.778 0.010 8.484 3.384 16.617 9.384 22.616s14.132 9.373 22.616 9.384zM291.2 642.026c10.496-2.701 21.504-2.701 32 0v-178.026h-32v178.026zM307.2 736c6.33 0 12.516-1.876 17.778-5.393 5.263-3.516 9.364-8.515 11.786-14.362s3.055-12.282 1.821-18.488c-1.235-6.208-4.283-11.909-8.758-16.385-4.476-4.475-10.177-7.523-16.385-8.758s-12.641-0.6-18.488 1.821-10.845 6.524-14.362 11.786c-3.516 5.262-5.393 11.448-5.393 17.778 0.010 8.484 3.384 16.617 9.384 22.616s14.132 9.373 22.616 9.384zM275.2 432h64c4.243 0 8.314 1.686 11.314 4.686s4.686 7.071 4.686 11.314v172.876c46.076-34.815 102.25-53.651 160-53.651s113.924 18.836 160 53.651v-172.876c0-4.243 1.686-8.314 4.686-11.314s7.071-4.686 11.314-4.686h64c1.201 0.003 2.396 0.141 3.566 0.412-24.137-17.905-50.184-33.079-77.664-45.247l-22.776 66.051c-1.085 3.148-3.126 5.879-5.837 7.812s-5.958 2.972-9.289 2.972h-256c-3.329 0-6.577-1.039-9.288-2.972s-4.753-4.664-5.838-7.812l-22.776-66.051c-27.479 12.168-53.527 27.342-77.664 45.247 1.17-0.271 2.365-0.41 3.566-0.412zM651.331 375.334c-88.088-31.113-184.175-31.113-272.262 0l19.532 56.666h233.201l19.53-56.666zM99.2 64v416h32v-416h-32zM83.2 544h64c4.243 0 8.314-1.686 11.314-4.686s4.686-7.071 4.686-11.314c0-4.243-1.686-8.314-4.686-11.314s-7.071-4.686-11.314-4.686h-64c-4.243 0-8.313 1.686-11.314 4.686s-4.686 7.071-4.686 11.314c0 4.243 1.686 8.314 4.686 11.314s7.070 4.686 11.314 4.686zM115.2 672c9.494 0 18.774-2.815 26.668-8.090s14.045-12.771 17.679-21.541c3.633-8.772 4.582-18.423 2.73-27.734-1.851-9.311-6.423-17.864-13.135-24.577-6.714-6.712-15.267-11.284-24.577-13.135-9.311-1.852-18.962-0.902-27.733 2.732-8.771 3.633-16.267 9.784-21.542 17.678s-8.089 17.174-8.089 26.668c0.015 12.726 5.077 24.927 14.075 33.925s21.199 14.060 33.925 14.075zM163.2 0h-96v16.2c0.005 4.189 1.672 8.205 4.634 11.167s6.978 4.628 11.166 4.634h64.4c4.189-0.005 8.205-1.672 11.167-4.634s4.628-6.977 4.634-11.167v-16.2zM249.642 0l98.63 286.026c107.684-40.035 226.171-40.035 333.856 0l98.629-286.026h-531.116zM831.642 419.078c-41.556-41.558-90.892-74.523-145.188-97.012-54.296-22.491-112.492-34.067-171.261-34.067s-116.965 11.576-171.261 34.067c-54.298 22.49-103.633 55.455-145.189 97.012l-35.542 35.549v28.124c1.594 0.563 3.156 1.211 4.682 1.938l35.552-35.555c82.687-82.683 194.831-129.134 311.766-129.134s229.080 46.451 311.766 129.134l35.552 35.555c1.526-0.727 3.089-1.375 4.682-1.938v-28.124l-35.558-35.549zM963.2 0h-96v16.2c0.005 4.189 1.672 8.205 4.634 11.167s6.977 4.628 11.167 4.634h64.399c4.189-0.005 8.205-1.672 11.167-4.634s4.628-6.977 4.634-11.167v-16.2zM947.2 512h-64c-4.243 0-8.314 1.686-11.314 4.686s-4.686 7.071-4.686 11.314c0 4.243 1.686 8.314 4.686 11.314s7.071 4.686 11.314 4.686h64c4.243 0 8.314-1.686 11.314-4.686s4.686-7.071 4.686-11.314c0-4.243-1.686-8.314-4.686-11.314s-7.071-4.686-11.314-4.686zM387.2 896h32v-32h-32v32zM451.2 896h32v-32h-32v32zM419.2 928h32v-32h-32v32zM419.2 864h32v-32h-32v32zM419.2 720h32v-32h-32v32zM771.2 896h32v-32h-32v32zM243.2 880h32v-32h-32v32z" />
<glyph unicode="&#xe92c;" glyph-name="Icon1" horiz-adv-x="1037" d="M256.166 626.57c0 11.135 9.025 20.163 20.163 20.163 11.136 0 20.161-9.027 20.161-20.163s-9.025-20.161-20.161-20.161c-11.137 0-20.163 9.028-20.163 20.161zM877.816 356.975l-224.782 20.421-62.484-175.29h111.11c11.132 0 20.16-9.027 20.16-20.159v-60.48h40.32c11.132 0 20.16-9.028 20.16-20.16v-124.991h10.080c11.132 0 20.159-9.028 20.159-20.16s-9.027-20.16-20.159-20.16h-544.316c-11.132 0-20.16 9.028-20.16 20.16s9.028 20.16 20.16 20.16h10.080v124.991c0 11.132 9.028 20.16 20.16 20.16h40.32v60.48c0 11.132 9.028 20.159 20.16 20.159h115.497l-76.771 235.608-234.642 92.251c-12.782 3.738-19.275 24.809-3.205 35.926l48.867 30.179c0.020 0 0.042 0 0.042 0.023 22.455 13.829 43.601-20.503 21.146-34.332l-14.593-9.012 205.993-80.983c5.605-2.218 9.919-6.772 11.794-12.52l83.788-257.139h51.053l72.541 203.556c3.067 8.589 11.715 14.132 20.826 13.306l200.611-18.225-113.56 187.487c-3.186 5.262-3.768 11.834-1.594 17.597l79.493 209.341-208.193-58.002c-6.209-1.713-13.124-0.282-18.121 3.79l-170.412 138.621-13.184-212.665c-0.197-3.22-1.165-6.345-2.82-9.114-1.656-2.769-3.953-5.098-6.696-6.796l-22.541-13.928c-22.86-14.116-44.047 20.196-21.188 34.312l13.647 8.428 14.961 241.393c1.206 14.878 19.35 25.022 32.841 14.394l192.746-156.783 236.556 65.882c17.631 3.786 30.118-11.82 24.252-26.589l-90.156-237.402 129.124-213.23c9.428-12.975-2.276-31.704-19.069-30.506zM383.135 81.148h-84.671v-104.831h84.671v104.831zM616.989 81.148h-193.535v-104.831h193.535v104.831zM657.308 81.148v-104.831h84.672v104.831h-84.672zM681.5 161.788h-322.556v-40.32h322.556v40.32z" />
<glyph unicode="&#xe92d;" glyph-name="Frame" horiz-adv-x="1037" d="M912.376 253.164c29.879 22.662 49.224 58.528 49.224 98.836 0 68.374-55.626 124-124 124s-124-55.626-124-124c0-40.296 19.332-76.15 49.196-98.813-24.928-10.289-47.459-25.624-66.173-45.041-21.124 41.768-56.764 74.993-100.246 93.006 29.88 22.662 49.224 58.528 49.224 98.836 0 68.374-55.626 124-124 124s-124-55.626-124-124c0-40.308 19.343-76.174 49.224-98.836-43.482-18.013-79.119-51.238-100.246-93.006-18.715 19.418-41.245 34.752-66.173 45.041 29.864 22.664 49.196 58.518 49.196 98.813 0 68.374-55.626 124-124 124s-124-55.626-124-124c0-40.308 19.344-76.174 49.224-98.836-71.086-29.449-121.224-99.557-121.224-181.164v-116c0-11.044 8.954-20 20-20h984c11.046 0 20 8.956 20 20v116c0 81.606-50.138 151.715-121.224 181.164zM121.6 352c0 46.318 37.682 84 84 84s84-37.682 84-84c0-46.318-37.682-84-84-84s-84 37.682-84 84zM325.6 119.988v-143.988h-276v96c0 86.020 69.982 156 156 156 49.614 0 95.794-23.406 125.22-63.018-3.474-14.746-5.226-29.844-5.22-44.993zM437.6 399.988c0 46.318 37.682 84 84 84s84-37.682 84-84c0-46.318-37.682-84-84-84s-84 37.682-84 84zM677.6-24h-39.666v63.054c0 11.044-8.954 20-20 20s-20-8.956-20-20v-63.054h-232.334v143.988c0 86.020 69.981 156 156 156s156-69.98 156-156v-143.988zM753.6 352c0 46.318 37.682 84 84 84s84-37.682 84-84c0-46.318-37.682-84-84-84s-84 37.682-84 84zM993.6-24h-276v143.988c0 15.478-1.812 30.54-5.22 44.993 29.426 39.612 75.606 63.018 125.22 63.018 86.019 0 156-69.98 156-156v-96zM719.744 898.398c-7.811 7.812-20.474 7.81-28.285 0l-68.628-68.628c-7.811-7.811-7.811-20.475 0-28.287 1.856-1.86 4.060-3.334 6.487-4.339s5.029-1.522 7.657-1.518c2.627-0.004 5.229 0.512 7.656 1.517s4.631 2.481 6.486 4.34l68.628 68.628c7.811 7.81 7.811 20.474 0 28.286zM420.369 829.77l-68.628 68.628c-7.811 7.81-20.474 7.81-28.287 0s-7.809-20.474 0-28.286l68.631-68.628c1.855-1.86 4.059-3.334 6.486-4.34s5.029-1.521 7.656-1.517c2.627-0.004 5.229 0.512 7.656 1.517s4.631 2.481 6.487 4.34c7.809 7.811 7.809 20.475 0 28.287zM521.6 960c-11.046 0-20-8.954-20-20v-42.974c0-11.046 8.954-20 20-20s20 8.954 20 20v42.974c0 11.046-8.954 20-20 20zM677.009 734.090c-3.501 10.774-12.64 18.476-23.849 20.104l-72.599 10.55-32.468 65.788c-5.014 10.158-15.164 16.468-26.492 16.468s-21.478-6.31-26.492-16.468l-32.468-65.788-72.598-10.55c-11.21-1.628-20.348-9.332-23.849-20.104s-0.639-22.376 7.474-30.285l52.535-51.208-12.402-72.306c-1.916-11.164 2.587-22.236 11.75-28.896 5.032-3.679 11.103-5.665 17.336-5.674 4.695 0 9.416 1.133 13.775 3.424l64.938 34.14 64.936-34.138c10.026-5.272 21.948-4.41 31.114 2.248 9.164 6.66 13.667 17.732 11.75 28.895l-12.402 72.307 52.535 51.208c8.113 7.909 10.975 19.512 7.475 30.285zM585.14 677.402c-3.43-3.343-5.996-7.47-7.475-12.026-1.48-4.554-1.83-9.402-1.021-14.122l9.75-56.842-51.045 26.836c-4.239 2.23-8.959 3.395-13.748 3.395-4.722 0-9.444-1.13-13.748-3.395l-51.045-26.836 9.75 56.845c0.809 4.721 0.458 9.567-1.023 14.121-1.48 4.556-4.046 8.682-7.475 12.024l-41.298 40.255 57.070 8.293c4.741 0.687 9.243 2.518 13.119 5.334s7.008 6.532 9.126 10.829l25.524 51.716 27.744-56.214c1.435-2.907 3.555-5.421 6.176-7.327s5.667-3.145 8.874-3.613l62.044-9.016-41.298-40.256zM632.078 131.085c-3.764 3.729-8.844 5.827-14.14 5.841-5.28 0-10.42-2.121-14.14-5.841-3.747-3.762-5.852-8.851-5.86-14.159 0-5.261 2.12-10.42 5.86-14.139 3.756-3.741 8.838-5.848 14.14-5.861 5.26 0 10.4 2.14 14.14 5.861 3.72 3.739 5.86 8.878 5.86 14.139s-2.14 10.419-5.86 14.159z" />
<glyph unicode="&#xea1c;" glyph-name="play3" d="M192 832l640-384-640-384z" />
<glyph unicode="&#xea82;" glyph-name="share2" d="M864 256c-45.16 0-85.92-18.738-115.012-48.83l-431.004 215.502c1.314 8.252 2.016 16.706 2.016 25.328s-0.702 17.076-2.016 25.326l431.004 215.502c29.092-30.090 69.852-48.828 115.012-48.828 88.366 0 160 71.634 160 160s-71.634 160-160 160-160-71.634-160-160c0-8.622 0.704-17.076 2.016-25.326l-431.004-215.504c-29.092 30.090-69.852 48.83-115.012 48.83-88.366 0-160-71.636-160-160 0-88.368 71.634-160 160-160 45.16 0 85.92 18.738 115.012 48.828l431.004-215.502c-1.312-8.25-2.016-16.704-2.016-25.326 0-88.368 71.634-160 160-160s160 71.632 160 160c0 88.364-71.634 160-160 160z" />
<glyph unicode="&#xea90;" glyph-name="facebook" d="M608 768h160v192h-160c-123.514 0-224-100.486-224-224v-96h-128v-192h128v-512h192v512h160l32 192h-192v96c0 17.346 14.654 32 32 32z" />
<glyph unicode="&#xea92;" glyph-name="instagram" d="M512 867.8c136.8 0 153-0.6 206.8-3 50-2.2 77-10.6 95-17.6 23.8-9.2 41-20.4 58.8-38.2 18-18 29-35 38.4-58.8 7-18 15.4-45.2 17.6-95 2.4-54 3-70.2 3-206.8s-0.6-153-3-206.8c-2.2-50-10.6-77-17.6-95-9.2-23.8-20.4-41-38.2-58.8-18-18-35-29-58.8-38.4-18-7-45.2-15.4-95-17.6-54-2.4-70.2-3-206.8-3s-153 0.6-206.8 3c-50 2.2-77 10.6-95 17.6-23.8 9.2-41 20.4-58.8 38.2-18 18-29 35-38.4 58.8-7 18-15.4 45.2-17.6 95-2.4 54-3 70.2-3 206.8s0.6 153 3 206.8c2.2 50 10.6 77 17.6 95 9.2 23.8 20.4 41 38.2 58.8 18 18 35 29 58.8 38.4 18 7 45.2 15.4 95 17.6 53.8 2.4 70 3 206.8 3zM512 960c-139 0-156.4-0.6-211-3-54.4-2.4-91.8-11.2-124.2-23.8-33.8-13.2-62.4-30.6-90.8-59.2-28.6-28.4-46-57-59.2-90.6-12.6-32.6-21.4-69.8-23.8-124.2-2.4-54.8-3-72.2-3-211.2s0.6-156.4 3-211c2.4-54.4 11.2-91.8 23.8-124.2 13.2-33.8 30.6-62.4 59.2-90.8 28.4-28.4 57-46 90.6-59 32.6-12.6 69.8-21.4 124.2-23.8 54.6-2.4 72-3 211-3s156.4 0.6 211 3c54.4 2.4 91.8 11.2 124.2 23.8 33.6 13 62.2 30.6 90.6 59s46 57 59 90.6c12.6 32.6 21.4 69.8 23.8 124.2 2.4 54.6 3 72 3 211s-0.6 156.4-3 211c-2.4 54.4-11.2 91.8-23.8 124.2-12.6 34-30 62.6-58.6 91-28.4 28.4-57 46-90.6 59-32.6 12.6-69.8 21.4-124.2 23.8-54.8 2.6-72.2 3.2-211.2 3.2v0zM512 711c-145.2 0-263-117.8-263-263s117.8-263 263-263 263 117.8 263 263c0 145.2-117.8 263-263 263zM512 277.4c-94.2 0-170.6 76.4-170.6 170.6s76.4 170.6 170.6 170.6c94.2 0 170.6-76.4 170.6-170.6s-76.4-170.6-170.6-170.6zM846.8 721.4c0-33.91-27.49-61.4-61.4-61.4s-61.4 27.49-61.4 61.4c0 33.91 27.49 61.4 61.4 61.4s61.4-27.49 61.4-61.4z" />
<glyph unicode="&#xea95;" glyph-name="telegram" d="M512 960c-282.8 0-512-229.2-512-512s229.2-512 512-512 512 229.2 512 512-229.2 512-512 512zM763.6 609l-84-395.8c-5.8-28.2-22.8-34.8-46.4-21.8l-128 94.6-61.4-59.8c-7.2-7-12.8-12.8-25.6-12.8-16.6 0-13.8 6.2-19.4 22l-43.6 143.2-126.6 39.4c-27.4 8.4-27.6 27.2 6.2 40.6l493.2 190.4c22.4 10.2 44.2-5.4 35.6-40z" />
<glyph unicode="&#xea96;" glyph-name="twitter" d="M1024 733.6c-37.6-16.8-78.2-28-120.6-33 43.4 26 76.6 67.2 92.4 116.2-40.6-24-85.6-41.6-133.4-51-38.4 40.8-93 66.2-153.4 66.2-116 0-210-94-210-210 0-16.4 1.8-32.4 5.4-47.8-174.6 8.8-329.4 92.4-433 219.6-18-31-28.4-67.2-28.4-105.6 0-72.8 37-137.2 93.4-174.8-34.4 1-66.8 10.6-95.2 26.2 0-0.8 0-1.8 0-2.6 0-101.8 72.4-186.8 168.6-206-17.6-4.8-36.2-7.4-55.4-7.4-13.6 0-26.6 1.4-39.6 3.8 26.8-83.4 104.4-144.2 196.2-146-72-56.4-162.4-90-261-90-17 0-33.6 1-50.2 3 93.2-59.8 203.6-94.4 322.2-94.4 386.4 0 597.8 320.2 597.8 597.8 0 9.2-0.2 18.2-0.6 27.2 41 29.4 76.6 66.4 104.8 108.6z" />
<glyph unicode="&#xea9d;" glyph-name="youtube" d="M1013.8 652.8c0 0-10 70.6-40.8 101.6-39 40.8-82.6 41-102.6 43.4-143.2 10.4-358.2 10.4-358.2 10.4h-0.4c0 0-215 0-358.2-10.4-20-2.4-63.6-2.6-102.6-43.4-30.8-31-40.6-101.6-40.6-101.6s-10.2-82.8-10.2-165.8v-77.6c0-82.8 10.2-165.8 10.2-165.8s10-70.6 40.6-101.6c39-40.8 90.2-39.4 113-43.8 82-7.8 348.2-10.2 348.2-10.2s215.2 0.4 358.4 10.6c20 2.4 63.6 2.6 102.6 43.4 30.8 31 40.8 101.6 40.8 101.6s10.2 82.8 10.2 165.8v77.6c-0.2 82.8-10.4 165.8-10.4 165.8zM406.2 315.2v287.8l276.6-144.4-276.6-143.4z" />
<glyph unicode="&#xeaa7;" glyph-name="dribbble" d="M512-64c-282.4 0-512 229.6-512 512s229.6 512 512 512c282.4 0 512-229.6 512-512s-229.6-512-512-512v0zM943.8 378c-15 4.8-135.4 40.6-272.4 18.6 57.2-157.2 80.4-285.2 85-311.8 98 66.4 168 171.4 187.4 293.2v0zM682.8 44.8c-6.6 38.4-31.8 172-93.2 331.6-1-0.4-2-0.6-2.8-1-246.8-86-335.4-257-343.2-273 74.2-57.8 167.4-92.4 268.4-92.4 60.6 0 118.4 12.4 170.8 34.8v0zM187 155c10 17 130 215.6 355.4 288.6 5.6 1.8 11.4 3.6 17.2 5.2-11 24.8-23 49.8-35.4 74.2-218.2-65.4-430.2-62.6-449.4-62.4-0.2-4.4-0.2-8.8-0.2-13.4 0-112.2 42.6-214.8 112.4-292.2v0zM84 537c19.6-0.2 199.8-1 404.4 53.2-72.4 128.8-150.6 237.2-162.2 253-122.4-57.8-214-170.6-242.2-306.2v0zM409.6 872.6c12-16.2 91.6-124.4 163.2-256 155.6 58.2 221.4 146.8 229.2 158-77.2 68.6-178.8 110.2-290 110.2-35.2-0.2-69.6-4.4-102.4-12.2v0zM850.6 723.8c-9.2-12.4-82.6-106.4-244.2-172.4 10.2-20.8 20-42 29-63.4 3.2-7.6 6.4-15 9.4-22.6 145.6 18.2 290.2-11 304.6-14-1 103.2-38 198-98.8 272.4v0z" />
<glyph unicode="&#xeaa8;" glyph-name="behance" d="M297 754.8c30.2 0 57.4-2.6 82.2-8 24.8-5.2 45.8-14 63.6-26 17.6-12 31.2-28 41.2-48 9.6-19.8 14.4-44.6 14.4-74 0-31.8-7.2-58.2-21.6-79.4-14.6-21.2-35.8-38.4-64.2-52 38.8-11.2 67.4-30.8 86.6-58.6 19.2-28 28.4-61.6 28.4-101.2 0-32-6.2-59.4-18.4-82.6-12.4-23.4-29.2-42.4-49.8-57-20.8-14.8-44.8-25.6-71.6-32.6-26.6-7-54-10.6-82.4-10.6h-305.4v630h297zM279 500.4c24.6 0 45 5.8 61 17.6 16 11.6 23.6 30.8 23.6 57.2 0 14.6-2.6 26.8-7.8 36.2-5.4 9.4-12.4 16.8-21.4 22-8.8 5.4-18.8 9-30.6 11-11.4 2.2-23.4 3.2-35.6 3.2h-129.6v-147.2h140.4zM286.6 232.2c13.6 0 26.6 1.2 38.8 4 12.4 2.8 23.4 7 32.6 13.4 9.2 6.2 17 14.4 22.6 25.2 5.6 10.6 8.2 24.2 8.2 40.8 0 32.4-9.2 55.6-27.4 69.6-18.2 13.8-42.4 20.6-72.4 20.6h-150.4v-173.4h148zM725.2 234.4c18.8-18.4 45.8-27.6 81-27.6 25.2 0 47.2 6.4 65.4 19.2s29.2 26.4 33.4 40.4h110.4c-17.8-55-44.6-94-81.4-117.6-36.2-23.6-80.6-35.6-132-35.6-36 0-68.2 5.8-97.2 17.2-29 11.6-53.2 27.8-73.6 49-19.8 21.2-35.4 46.4-46.4 76-10.8 29.4-16.4 62-16.4 97.2 0 34.2 5.6 66 16.8 95.4 11.4 29.6 27 55 47.8 76.4s45.2 38.4 74 50.8c28.6 12.4 60.2 18.6 95.2 18.6 38.6 0 72.4-7.4 101.4-22.6 28.8-15 52.6-35.2 71.2-60.4s31.8-54.2 40-86.6c8.2-32.4 11-66.2 8.8-101.6h-329.4c0-35.8 12-70 31-88.2zM869 474c-14.8 16.4-40.2 25.4-70.8 25.4-20 0-36.6-3.4-49.8-10.2-13-6.8-23.6-15.2-31.8-25.2-8-10-13.6-20.8-16.8-32.2-3.2-11-5.2-21.2-5.8-30h204c-3 32-14 55.6-29 72.2zM668.4 704h255.4v-62.2h-255.4v62.2z" />
<glyph unicode="&#xeaca;" glyph-name="linkedin2" d="M384 576h177.106v-90.782h2.532c24.64 44.194 84.958 90.782 174.842 90.782 186.946 0 221.52-116.376 221.52-267.734v-308.266h-184.61v273.278c0 65.184-1.334 149.026-96.028 149.026-96.148 0-110.82-70.986-110.82-144.292v-278.012h-184.542v576zM64 576h192v-576h-192v576zM256 736c0-53.019-42.981-96-96-96s-96 42.981-96 96c0 53.019 42.981 96 96 96s96-42.981 96-96z" />
<glyph unicode="&#xead1;" glyph-name="pinterest" d="M512 891.6c-245 0-443.6-198.6-443.6-443.6 0-188 117-348.4 282-413-3.8 35-7.4 89 1.6 127.2 8 34.6 52 220.4 52 220.4s-13.2 26.6-13.2 65.8c0 61.6 35.8 107.8 80.2 107.8 37.8 0 56.2-28.4 56.2-62.4 0-38-24.2-95-36.8-147.6-10.6-44.2 22-80.2 65.6-80.2 78.8 0 139.4 83.2 139.4 203.2 0 106.2-76.4 180.4-185.2 180.4-126.2 0-200.2-94.6-200.2-192.6 0-38.2 14.6-79 33-101.2 3.6-4.4 4.2-8.2 3-12.8-3.4-14-10.8-44.2-12.4-50.4-2-8.2-6.4-9.8-14.8-6-55.4 25.8-90 106.8-90 171.8 0 140 101.6 268.4 293 268.4 153.8 0 273.4-109.6 273.4-256.2 0-152.8-96.4-276-230.2-276-45 0-87.2 23.4-101.6 51 0 0-22.2-84.6-27.6-105.4-10-38.6-37-86.8-55.2-116.2 41.6-12.8 85.6-19.8 131.4-19.8 245 0 443.6 198.6 443.6 443.6 0 245.2-198.6 443.8-443.6 443.8z" />
</font>
</defs>
</svg>
